找回密码

查看: 953|回复: 0

[动作] 屠魔战士/妖魔行者 I.Frankenstein.2014.1080p.BluRay.x264-SPARKS 6.54GB

[复制链接]
蓝光币
2048
发表于 2019-6-12 12:36:15 | 显示全部楼层 |阅读模式


◎译  名 屠魔战士 / 妖魔行者(港) / 屠魔战神 / 我,弗兰肯斯坦 / 科学怪人:屠魔大战(台)
◎片  名 I, Frankenstein
◎年  代 2014
◎产  地 美国 / 澳大利亚
◎类  别 行动 / 科幻 / 惊悚 / 奇异
◎语  言 英语
◎上映日期 2014-01-24(美国) / 2015-05-26(中国大陆)
◎IMDb评分  5.1/10 from 74914 users
◎IMDb链接  http://www.imdb.com/title/tt1418377
◎豆瓣评分 5.2/10 from 17681 users
◎豆瓣链接 https://movie.douban.com/subject/3680627/
◎片  长 92分钟
◎导  演 斯图尔特·贝亚蒂耶 Stuart Beattie
◎编  剧 斯图尔特·贝亚蒂耶 Stuart Beattie / 凯文·格雷维奥斯 Kevin Grevioux / 玛丽·雪莱 Mary Shelley
◎主  演 艾伦·艾克哈特 Aaron Eckhart
      伊冯娜·斯特拉霍夫斯基 Yvonne Strahovski
      米兰达·奥图 Miranda Otto
      比尔·奈伊 Bill Nighy
      杰·科特尼 Jai Courtney
      Socratis Otto
      阿登·杨 Aden Young
      凯特琳·斯塔西 Caitlin Stasey
      Mahesh Jadu
      Steve Mouzakis
      Nicholas Bell
      Deniz Akdeniz
      Chris Pang
      凯文·格雷维奥斯 Kevin Grevioux
      布鲁斯·斯宾斯 Bruce Spence

◎标  签 科幻 | 美国 | 魔幻 | 科学怪人 | 行动 | 2014 | 美国电影 | 惊悚
◎简  介  
  疯狂的科学家弗兰肯斯坦(Aden Young 饰)用分歧的尸身部分缔造了科学怪人亚当(艾伦·艾克哈特 Aaron Eckhart 饰),可却落空了对方的信赖。亚当在埋葬了弗兰肯斯坦后,遭到可怕的恶魔们的攻击。关键时辰,他被一群奥秘战士救下,对方是不为人知的夜行神龙族,长 久以来一向和可怕的炼狱恶魔作战。在女王莲诺尔(米兰达·奥图 Miranda Otto 饰)的请求下,已经憎恨人类的亚当加入了剿灭恶魔的战团。尔后两百多年,他在天下各地流浪,只为先动手为强,撤除恶魔的头子纳贝流士王子(比尔·奈伊 Bill Nighy 饰)。
天使和恶魔的周全战争拉开序幕,亚当起着无足轻重的感化……
◎获奖情况  
  第1届豆瓣电影年度榜单(2014)
  评分最低的外语电影(提名)

  1. Video
  2. ID                                       : 1
  3. Format                                   : AVC
  4. Format/Info                              : Advanced Video Codec
  5. Format profile                           : [email protected]
  6. Format settings, CABAC                   : Yes
  7. Format settings, ReFrames                : 5 frames
  8. Codec ID                                 : V_MPEG4/ISO/AVC
  9. Duration                                 : 1 h 32 min
  10. Bit rate                                 : 8 647 kb/s
  11. Width                                    : 1 920 pixels
  12. Height                                   : 800 pixels
  13. Display aspect ratio                     : 2.40:1
  14. Frame rate mode                          : Constant
  15. Frame rate                               : 23.976 FPS
  16. Color space                              : YUV
  17. Chroma subsampling                       : 4:2:0
  18. Bit depth                                : 8 bits
  19. Scan type                                : Progressive
  20. Bits/(Pixel*Frame)                       : 0.235
  21. Stream size                              : 5.44 GiB (83%)
  22. Writing library                          : x264 core 142 r2431 ac76440
  23. Encoding settings                        : cabac=1 / ref=5 / deblock=1:0:0 / analyse=0x3:0x133 / me=umh / subme=7 / psy=1 / psy_rd=1.00:0.00 / mixed_ref=1 / me_range=16 / chroma_me=1 / trellis=1 / 8x8dct=1 / cqm=0 / deadzone=21,11 / fast_pskip=0 / chroma_qp_offset=-2 / threads=12 / lookahead_threads=2 / sliced_threads=0 / nr=0 / decimate=1 / interlaced=0 / bluray_compat=0 / constrained_intra=0 / bframes=3 / b_pyramid=2 / b_adapt=1 / b_bias=0 / direct=1 / weightb=1 / open_gop=0 / weightp=2 / keyint=250 / keyint_min=23 / scenecut=40 / intra_refresh=0 / rc_lookahead=40 / rc=2pass / mbtree=1 / bitrate=8647 / ratetol=1.0 / qcomp=0.60 / qpmin=0 / qpmax=69 / qpstep=4 / cplxblur=20.0 / qblur=0.5 / ip_ratio=1.40 / aq=1:1.00
  24. Language                                 : English
  25. Default                                  : Yes
  26. Forced                                   : No
  27. Audio
  28. ID                                       : 2
  29. Format                                   : DTS
  30. Format/Info                              : Digital Theater Systems
  31. Mode                                     : 16
  32. Format settings, Endianness              : Big
  33. Codec ID                                 : A_DTS
  34. Duration                                 : 1 h 32 min
  35. Bit rate mode                            : Constant
  36. Bit rate                                 : 1 509 kb/s
  37. Channel(s)                               : 6 channels
  38. Channel positions                        : Front: L C R, Side: L R, LFE
  39. Sampling rate                            : 48.0 kHz
  40. Frame rate                               : 93.750 FPS (512 spf)
  41. Bit depth                                : 24 bits
  42. Compression mode                         : Lossy
  43. Stream size                              : 997 MiB (15%)
  44. Language                                 : English
  45. Default                                  : Yes
  46. Forced                                   : No
  47. Menu
  48. 00:00:00.000                             : en:00:00:00.000
  49. 00:02:28.857                             : en:00:02:28.857
  50. 00:04:56.421                             : en:00:04:56.421
  51. 00:09:19.768                             : en:00:09:19.768
  52. 00:12:02.472                             : en:00:12:02.472
  53. 00:17:39.725                             : en:00:17:39.725
  54. 00:21:26.994                             : en:00:21:26.994
  55. 00:24:58.497                             : en:00:24:58.497
  56. 00:29:42.614                             : en:00:29:42.614
  57. 00:33:49.569                             : en:00:33:49.569
  58. 00:37:56.274                             : en:00:37:56.274
  59. 00:43:54.632                             : en:00:43:54.632
  60. 00:48:23.234                             : en:00:48:23.234
  61. 00:52:29.188                             : en:00:52:29.188
  62. 00:56:04.736                             : en:00:56:04.736
  63. 00:59:56.301                             : en:00:59:56.301
  64. 01:06:15.513                             : en:01:06:15.513
  65. 01:08:58.468                             : en:01:08:58.468
  66. 01:12:59.333                             : en:01:12:59.333
  67. 01:16:24.538                             : en:01:16:24.538
  68. 01:20:22.860                             : en:01:20:22.860
  69. 01:22:00.666                             : en:01:22:00.666
复制代码









                                       
                                       

                                       
                                       
                                       




回复

使用道具 举报

懒得打字嘛,点击右侧快捷回复 【右侧内容,后台自定义】
您需要登录后才可以回帖 登录 | 立即加入

本版积分规则

Archiver| |网站地图

Copyright © 2024 Comsenz Inc. Powered by 蓝光电影网

本站内容由用户自主分享和转载自互联网,转载目的在于传递更多信息,并不代表本网赞同其观点和对其真实性负责。

如有侵权、违反国家法律政策行为,请联系我们,我们会第一时间及时清除和处理!

举报反馈邮箱:4k1080.com@gmail.com

快速回复 返回顶部 返回列表