找回密码

查看: 1129|回复: 0

[喜剧] 与灾难调情/挑逗. 性. 游戏 Flirting.with.Disaster.1996.1080p.BluRay.X264-AMIABLE 6.55GB

[复制链接]
蓝光币
2048
发表于 2020-12-6 09:28:55 | 显示全部楼层 |阅读模式


◎译  名 与灾难调情/撩拨. 性. 游戏/边个同囗有亲
◎片  名 Flirting with Disaster
◎年  代 1996
◎产  地 美国
◎类  别 笑剧
◎语  言 英语
◎上映日期 1996-03-22
◎IMDb评分  6.7/10 from 17594 users
◎IMDb链接  https://www.imdb.com/title/tt0116324/
◎豆瓣评分 6.4/10 from 260 users
◎豆瓣链接 https://movie.douban.com/subject/1297823/
◎片  长 92 分钟
◎导  演 大卫·O·拉塞尔 David O. Russell
◎编  剧 大卫·O·拉塞尔 David O. Russell
◎主  演 本·斯蒂勒 Ben Stiller
       帕特丽夏·阿奎特 Patricia Arquette
       蒂娅·里欧妮 Téa Leoni
       玛丽·泰勒·摩尔 Mary Tyler Moore
       乔治·席格 George Segal
       阿伦·阿尔达 Alan Alda
       莉莉·汤姆林 Lily Tomlin
       理查德·詹金斯 Richard Jenkins
       乔什·布洛林 Josh Brolin
       西利亚·维斯顿 Celia Weston
       格伦·菲茨杰拉德 Glenn Fitzgerald
       贝丝·奥斯特罗斯 Beth Ostrosky
       大卫·帕特里克·凯利 David Patrick Kelly
       John Ford Noonan
       Charlet Oberly
       纳迪雅·达珍妮 Nadia Dajani
       Tori Davis
       Shawn Michael Howard
       苏珊娜·斯奈德 Suzanne Snyder
◎标  签 笑剧 | 美国 | 美国电影 | 1996 | BenStiller | 黑色诙谐 | 家庭 | 1990s
◎简  介


  梅尔(本·斯蒂勒 Ben Stiller 饰)是一位昆虫学家,他和妻子南希(帕特丽夏·阿奎特 Patricia Arquette 饰)之间的豪情非常恩爱,比来,南希刚刚诞下了两人恋爱的结晶,让全部家庭都覆盖在高兴当中。但是,这个孩子的出世让梅尔起头思考起了自己的人生,梅尔自幼落空了怙恃,由养怙恃抚养长大,梅尔希望可以在有生之年里见一见自己的亲生怙恃。
  
  就这样,掉臂养怙恃的否决和阻止,梅尔带着妻儿踏上了寻根之旅,和他们一路上路的,还有领养机构的工作职员蒂娜(蒂娅·里欧妮 Tea Leoni 饰)。蒂娜刚刚履历过一段失利的婚姻,此时的她整小我都处于一种饥渴的状态之下,而南希似乎得了了产后烦闷症。
  1. Video
  2. ID                                       : 1
  3. Format                                   : AVC
  4. Format/Info                              : Advanced Video Codec
  5. Format profile                           : [email protected]
  6. Format settings                          : CABAC / 4 Ref Frames
  7. Format settings, CABAC                   : Yes
  8. Format settings, Reference frames        : 4 frames
  9. Codec ID                                 : V_MPEG4/ISO/AVC
  10. Duration                                 : 1 h 32 min
  11. Bit rate                                 : 9 349 kb/s
  12. Width                                    : 1 920 pixels
  13. Height                                   : 1 040 pixels
  14. Display aspect ratio                     : 1.85:1
  15. Frame rate mode                          : Constant
  16. Frame rate                               : 24.000 FPS
  17. Color space                              : YUV
  18. Chroma subsampling                       : 4:2:0
  19. Bit depth                                : 8 bits
  20. Scan type                                : Progressive
  21. Bits/(Pixel*Frame)                       : 0.195
  22. Stream size                              : 5.93 GiB (90%)
  23. Writing library                          : x264 core 130 r2273 b3065e6
  24. Encoding settings                        : cabac=1 / ref=4 / deblock=1:-3:-3 / analyse=0x3:0x113 / me=umh / subme=8 / psy=1 / psy_rd=1.00:0.00 / mixed_ref=1 / me_range=16 / chroma_me=1 / trellis=1 / 8x8dct=1 / cqm=0 / deadzone=21,11 / fast_pskip=1 / chroma_qp_offset=-2 / threads=18 / lookahead_threads=3 / sliced_threads=0 / nr=0 / decimate=1 / interlaced=0 / bluray_compat=0 / constrained_intra=0 / bframes=3 / b_pyramid=2 / b_adapt=2 / b_bias=0 / direct=3 / weightb=1 / open_gop=0 / weightp=2 / keyint=240 / keyint_min=24 / scenecut=40 / intra_refresh=0 / rc_lookahead=50 / rc=2pass / mbtree=1 / bitrate=9349 / ratetol=1.0 / qcomp=0.60 / qpmin=0 / qpmax=69 / qpstep=4 / cplxblur=20.0 / qblur=0.5 / ip_ratio=1.40 / aq=1:1.00
  25. Language                                 : English
  26. Default                                  : Yes
  27. Forced                                   : No

  28. Audio
  29. ID                                       : 2
  30. Format                                   : DTS
  31. Format/Info                              : Digital Theater Systems
  32. Codec ID                                 : A_DTS
  33. Duration                                 : 1 h 32 min
  34. Bit rate mode                            : Constant
  35. Bit rate                                 : 768 kb/s
  36. Channel(s)                               : 6 channels
  37. Channel layout                           : C L R Ls Rs LFE
  38. Sampling rate                            : 48.0 kHz
  39. Frame rate                               : 93.750 FPS (512 SPF)
  40. Bit depth                                : 24 bits
  41. Compression mode                         : Lossy
  42. Stream size                              : 510 MiB (8%)
  43. Language                                 : English
  44. Default                                  : Yes
  45. Forced                                   : No

  46. Menu
  47. 00:00:00.000                             : en:00:00:00.000
  48. 00:04:40.167                             : en:00:04:40.167
  49. 00:10:19.667                             : en:00:10:19.667
  50. 00:15:25.667                             : en:00:15:25.667
  51. 00:21:06.167                             : en:00:21:06.167
  52. 00:27:56.667                             : en:00:27:56.667
  53. 00:34:30.667                             : en:00:34:30.667
  54. 00:47:49.667                             : en:00:47:49.667
  55. 00:48:58.167                             : en:00:48:58.167
  56. 00:55:51.667                             : en:00:55:51.667
  57. 00:58:58.667                             : en:00:58:58.667
  58. 01:04:11.667                             : en:01:04:11.667
  59. 01:12:07.667                             : en:01:12:07.667
  60. 01:15:54.167                             : en:01:15:54.167
  61. 01:21:53.667                             : en:01:21:53.667
复制代码






                                       
                                       

                                       
                                       
                                       




回复

使用道具 举报

懒得打字嘛,点击右侧快捷回复 【右侧内容,后台自定义】
您需要登录后才可以回帖 登录 | 立即加入

本版积分规则

Archiver| |网站地图

Copyright © 2024 Comsenz Inc. Powered by 蓝光电影网

本站内容由用户自主分享和转载自互联网,转载目的在于传递更多信息,并不代表本网赞同其观点和对其真实性负责。

如有侵权、违反国家法律政策行为,请联系我们,我们会第一时间及时清除和处理!

举报反馈邮箱:4k1080.com@gmail.com

快速回复 返回顶部 返回列表