找回密码

查看: 1163|回复: 0

[喜剧] 疯狂的女孩 Girl.Crazy.1943.1080p.BluRay.x264.FLAC.2.0-HANDJOB 7.85GB

[复制链接]
蓝光币
2039
发表于 2021-1-4 08:47:49 | 显示全部楼层 |阅读模式


◎译  名 疯狂的女孩
◎片  名 Girl Crazy
◎年  代 1943
◎产  地 美国
◎类  别 笑剧 / 恋爱 / 歌舞
◎语  言 英语
◎上映日期 1943-11-26
◎IMDb评分  6.8/10 from 1618 users
◎IMDb链接  https://www.imdb.com/title/tt0035942/
◎豆瓣评分 /10 from 0 users
◎豆瓣链接 https://movie.douban.com/subject/1295378/
◎片  长 99 分钟
◎编  剧 多萝西·金斯利 Dorothy Kingsley
◎主  演 米基·鲁尼 Mickey Rooney
       朱迪·加兰 Judy Garland
◎标  签 歌舞 | 笑剧 | 歌舞片 | Judy_Garland | 黑白 | 老片 | 美国电影 | 美国
◎简  介


  暂无相关剧情先容
  1. Video
  2. ID                                       : 1
  3. Format                                   : AVC
  4. Format/Info                              : Advanced Video Codec
  5. Format profile                           : [email protected]
  6. Format settings                          : CABAC / 5 Ref Frames
  7. Format settings, CABAC                   : Yes
  8. Format settings, Reference frames        : 5 frames
  9. Codec ID                                 : V_MPEG4/ISO/AVC
  10. Duration                                 : 1 h 38 min
  11. Bit rate                                 : 10.9 Mb/s
  12. Width                                    : 1 480 pixels
  13. Height                                   : 1 080 pixels
  14. Display aspect ratio                     : 1.370
  15. Frame rate mode                          : Constant
  16. Frame rate                               : 23.976 (24000/1001/189150) FPS
  17. Color space                              : YUV
  18. Chroma subsampling                       : 4:2:0
  19. Bit depth                                : 8 bits
  20. Scan type                                : Progressive
  21. Bits/(Pixel*Frame)                       : 0.283
  22. Stream size                              : 7.49 GiB (95%)
  23. Writing library                          : x264 core 157 r2935 545de2f
  24. Encoding settings                        : cabac=1 / ref=5 / deblock=1:-3:-3 / analyse=0x3:0x133 / me=umh / subme=10 / psy=1 / psy_rd=1.00:0.00 / mixed_ref=1 / me_range=32 / chroma_me=1 / trellis=2 / 8x8dct=1 / cqm=0 / deadzone=21,11 / fast_pskip=0 / chroma_qp_offset=-2 / threads=12 / lookahead_threads=3 / sliced_threads=0 / nr=0 / decimate=0 / interlaced=0 / bluray_compat=0 / constrained_intra=0 / bframes=16 / b_pyramid=2 / b_adapt=2 / b_bias=0 / direct=3 / weightb=1 / open_gop=0 / weightp=2 / keyint=240 / keyint_min=24 / scenecut=40 / intra_refresh=0 / rc_lookahead=60 / rc=crf / mbtree=0 / crf=19.0 / qcomp=0.60 / qpmin=0 / qpmax=69 / qpstep=4 / vbv_maxrate=62500 / vbv_bufsize=78125 / crf_max=0.0 / nal_hrd=none / filler=0 / ip_ratio=1.40 / pb_ratio=1.30 / aq=2:1.00
  25. Default                                  : Yes
  26. Forced                                   : No
  27. Color range                              : Limited
  28. Color primaries                          : BT.709
  29. Transfer characteristics                 : BT.709
  30. Matrix coefficients                      : BT.709
  31. Audio #1
  32. ID                                       : 2
  33. Format                                   : FLAC
  34. Format/Info                              : Free Lossless Audio Codec
  35. Codec ID                                 : A_FLAC
  36. Duration                                 : 1 h 38 min
  37. Bit rate mode                            : Variable
  38. Bit rate                                 : 436 kb/s
  39. Channel(s)                               : 2 channels
  40. Channel layout                           : L R
  41. Sampling rate                            : 48.0 kHz
  42. Frame rate                               : 11.719 FPS (4096 SPF)
  43. Bit depth                                : 16 bits
  44. Compression mode                         : Lossless
  45. Stream size                              : 308 MiB (4%)
  46. Writing library                          : libFLAC 1.3.1 (UTC 2014-11-25)
  47. Language                                 : English
  48. Default                                  : Yes
  49. Forced                                   : No
  50. Audio #2
  51. ID                                       : 3
  52. Format                                   : AAC LC
  53. Format/Info                              : Advanced Audio Codec Low Complexity
  54. Codec ID                                 : A_AAC-2
  55. Duration                                 : 1 h 38 min
  56. Bit rate                                 : 79.1 kb/s
  57. Channel(s)                               : 2 channels
  58. Channel layout                           : L R
  59. Sampling rate                            : 48.0 kHz
  60. Frame rate                               : 46.875 FPS (1024 SPF)
  61. Compression mode                         : Lossy
  62. Stream size                              : 55.8 MiB (1%)
  63. Title                                    : Commentary with film historian John Fricke
  64. Language                                 : English
  65. Default                                  : No
  66. Forced                                   : No
  67. Text #1
  68. ID                                       : 4
  69. Format                                   : UTF-8
  70. Codec ID                                 : S_TEXT/UTF8
  71. Codec ID/Info                            : UTF-8 Plain Text
  72. Duration                                 : 1 h 36 min
  73. Bit rate                                 : 77 b/s
  74. Count of elements                        : 1633
  75. Stream size                              : 54.6 KiB (0%)
  76. Language                                 : English
  77. Default                                  : No
  78. Forced                                   : No
  79. Text #2
  80. ID                                       : 5
  81. Format                                   : UTF-8
  82. Codec ID                                 : S_TEXT/UTF8
  83. Codec ID/Info                            : UTF-8 Plain Text
  84. Duration                                 : 1 h 36 min
  85. Bit rate                                 : 81 b/s
  86. Count of elements                        : 1729
  87. Stream size                              : 57.7 KiB (0%)
  88. Title                                    : SDH
  89. Language                                 : English
  90. Default                                  : No
  91. Forced                                   : No
  92. Menu
  93. 00:00:00.000                             : en:Credits
  94. 00:01:43.186                             : en:Treat Me Rough
  95. 00:07:46.341                             : en:Road to Cody
  96. 00:11:19.053                             : en:Car Trouble
  97. 00:15:53.576                             : en:Full Days at Cody
  98. 00:19:14.319                             : en:Riding Whitey
  99. 00:23:13.766                             : en:Wagon-Wheeling with Rags
  100. 00:25:47.419                             : en:Bidin' My Time
  101. 00:31:12.203                             : en:Homeward Bound
  102. 00:34:49.503                             : en:Could You Use Me?
  103. 00:40:11.533                             : en:Embraceable You
  104. 00:46:22.737                             : en:Birthday Present
  105. 00:51:22.619                             : en:Public Opinion
  106. 00:56:00.481                             : en:Closing Notice
  107. 00:59:52.545                             : en:Broadcast Banter
  108. 01:05:18.455                             : en:Gubernatorial Reprieve
  109. 01:08:58.550                             : en:Governor's Daughter
  110. 01:11:09.181                             : en:Fascinating Rhythm
  111. 01:16:52.857                             : en:Dancing Danny
  112. 01:20:48.676                             : en:Queen of the Rodeo
  113. 01:23:57.447                             : en:But Not for Me
  114. 01:27:41.130                             : en:Going Coed
  115. 01:30:47.107                             : en:I Got Rhythm (Song)
  116. 01:34:09.601                             : en:I Got Rhythm (Dance)
复制代码



                                       
                                       

                                       
                                       
                                       




相关帖子

回复

使用道具 举报

懒得打字嘛,点击右侧快捷回复 【右侧内容,后台自定义】
您需要登录后才可以回帖 登录 | 立即加入

本版积分规则

Archiver| |网站地图

Copyright © 2024 Comsenz Inc. Powered by 蓝光电影网

本站内容由用户自主分享和转载自互联网,转载目的在于传递更多信息,并不代表本网赞同其观点和对其真实性负责。

如有侵权、违反国家法律政策行为,请联系我们,我们会第一时间及时清除和处理!

举报反馈邮箱:4k1080.com@gmail.com

快速回复 返回顶部 返回列表