找回密码

查看: 1994|回复: 0

[惊悚] 大浪白鲨 Great.White.2021.1080p.BluRay.REMUX.AVC.DTS-HD.MA.5.1-FGT 16.88GB

[复制链接]
蓝光币
2039
发表于 2021-6-3 20:01:11 | 显示全部楼层 |阅读模式


◎译  名 大浪白鲨
◎片  名 Great White
◎年  代 2020
◎产  地 澳大利亚
◎类  别 惊悚
◎语  言 英语
◎上映日期 2020(美国)
◎豆瓣评分 /10 from 0 users
◎豆瓣链接 https://movie.douban.com/subject/34940724/
◎主  演 卡特里娜·宝登 Katrina Bowden
       阿隆·贾库本科 Aaron Jakubenko
       金·茨卡科什 Kimie Tsukakoshi
       塔蒂安娜·马尔贾诺维奇 Tatjana Marjanovic
◎标  签 鲨鱼 | 澳大利亚 | 2020 | 灾难 | 澳大利亚电影 | 惊悚 | 可骇 | 大海
◎简  介


  A fun filled flight to a remote atoll turns into a nightmare for five passengers when their seaplane is destroyed in a freak accident and they are trapped on a raft, 100 miles from shore with man-eating sharks lurking beneath the surface.
  1. Video
  2. ID                                       : 1
  3. ID in the original source medium         : 4113 (0x1011)
  4. Format                                   : AVC
  5. Format/Info                              : Advanced Video Codec
  6. Format profile                           : [email protected]
  7. Format settings                          : CABAC / 3 Ref Frames
  8. Format settings, CABAC                   : Yes
  9. Format settings, Reference frames        : 3 frames
  10. Codec ID                                 : V_MPEG4/ISO/AVC
  11. Duration                                 : 1 h 31 min
  12. Bit rate mode                            : Variable
  13. Bit rate                                 : 24.5 Mb/s
  14. Maximum bit rate                         : 40.0 Mb/s
  15. Width                                    : 1 920 pixels
  16. Height                                   : 1 080 pixels
  17. Display aspect ratio                     : 16:9
  18. Frame rate mode                          : Constant
  19. Frame rate                               : 24.000 FPS
  20. Color space                              : YUV
  21. Chroma subsampling                       : 4:2:0
  22. Bit depth                                : 8 bits
  23. Scan type                                : Progressive
  24. Bits/(Pixel*Frame)                       : 0.492
  25. Stream size                              : 15.6 GiB (93%)
  26. Language                                 : English
  27. Default                                  : No
  28. Forced                                   : No
  29. Color range                              : Limited
  30. Color primaries                          : BT.709
  31. Transfer characteristics                 : BT.709
  32. Matrix coefficients                      : BT.709
  33. Original source medium                   : Blu-ray
  34. Audio
  35. ID                                       : 2
  36. ID in the original source medium         : 4353 (0x1101)
  37. Format                                   : DTS XLL
  38. Format/Info                              : Digital Theater Systems
  39. Commercial name                          : DTS-HD Master Audio
  40. Codec ID                                 : A_DTS
  41. Duration                                 : 1 h 31 min
  42. Bit rate mode                            : Variable
  43. Bit rate                                 : 1 967 kb/s
  44. Channel(s)                               : 6 channels
  45. Channel layout                           : C L R Ls Rs LFE
  46. Sampling rate                            : 48.0 kHz
  47. Frame rate                               : 93.750 FPS (512 SPF)
  48. Bit depth                                : 16 bits
  49. Compression mode                         : Lossless
  50. Stream size                              : 1.26 GiB (7%)
  51. Title                                    : Surround 5.1
  52. Language                                 : English
  53. Default                                  : Yes
  54. Forced                                   : No
  55. Original source medium                   : Blu-ray
  56. Text
  57. ID                                       : 3
  58. Format                                   : UTF-8
  59. Codec ID                                 : S_TEXT/UTF8
  60. Codec ID/Info                            : UTF-8 Plain Text
  61. Duration                                 : 1 h 17 min
  62. Bit rate                                 : 27 b/s
  63. Count of elements                        : 669
  64. Stream size                              : 15.7 KiB (0%)
  65. Language                                 : English
  66. Default                                  : Yes
  67. Forced                                   : No
  68. Menu
  69. 00:00:00.000                             : Chapter 01
  70. 00:09:45.208                             : Chapter 02
  71. 00:21:51.541                             : Chapter 03
  72. 00:31:17.500                             : Chapter 04
  73. 00:40:06.541                             : Chapter 05
  74. 00:51:39.708                             : Chapter 06
  75. 00:59:19.541                             : Chapter 07
  76. 01:03:44.958                             : Chapter 08
  77. 01:09:34.583                             : Chapter 09
  78. 01:12:39.750                             : Chapter 10
  79. 01:18:34.083                             : Chapter 11
  80. 01:24:41.000                             : Chapter 12
复制代码




                                       
                                       

                                       
                                       
                                       




回复

使用道具 举报

懒得打字嘛,点击右侧快捷回复 【右侧内容,后台自定义】
您需要登录后才可以回帖 登录 | 立即加入

本版积分规则

Archiver| |网站地图

Copyright © 2024 Comsenz Inc. Powered by 蓝光电影网

本站内容由用户自主分享和转载自互联网,转载目的在于传递更多信息,并不代表本网赞同其观点和对其真实性负责。

如有侵权、违反国家法律政策行为,请联系我们,我们会第一时间及时清除和处理!

举报反馈邮箱:4k1080.com@gmail.com

快速回复 返回顶部 返回列表