找回密码

查看: 913|回复: 0

[喜剧] 一切徒手2 Lommbock.2017.GERMAN.1080p.BluRay.x264-HANDJOB 9.69GB

[复制链接]
蓝光币
2039
发表于 2021-1-3 09:17:24 | 显示全部楼层 |阅读模式


◎译  名 一切徒手2/Lammbock 2
◎片  名 Lommbock
◎年  代 2017
◎产  地 德国
◎类  别 笑剧
◎语  言 德语
◎上映日期 2017-03-23
◎IMDb评分  6.7/10 from 3177 users
◎IMDb链接  https://www.imdb.com/title/tt5075584/
◎豆瓣评分 /10 from 0 users
◎豆瓣链接 https://movie.douban.com/subject/26824018/
◎片  长 91分钟
◎主  演 莫里兹·布雷多 Moritz Bleibtreu
       卢卡斯·格雷戈霍威茨 Lucas Gregorowicz
       路易斯·霍夫曼 Louis Hofmann
       朱利斯·尼兹舒寇夫 Julius Nitschkoff
◎标  签 德国 | 笑剧 | 电影 | 德国电影 | 霍夫曼 | 德语 | LouisHofmann | ge
◎简  介


  暂无相关剧情先容
  1. Video
  2. ID                                       : 1
  3. Format                                   : AVC
  4. Format/Info                              : Advanced Video Codec
  5. Format profile                           : [email protected]
  6. Format settings                          : CABAC / 5 Ref Frames
  7. Format settings, CABAC                   : Yes
  8. Format settings, Reference frames        : 5 frames
  9. Codec ID                                 : V_MPEG4/ISO/AVC
  10. Duration                                 : 1 h 46 min
  11. Bit rate                                 : 12.4 Mb/s
  12. Width                                    : 1 920 pixels
  13. Height                                   : 800 pixels
  14. Display aspect ratio                     : 2.40:1
  15. Frame rate mode                          : Constant
  16. Frame rate                               : 24.000 FPS
  17. Color space                              : YUV
  18. Chroma subsampling                       : 4:2:0
  19. Bit depth                                : 8 bits
  20. Scan type                                : Progressive
  21. Bits/(Pixel*Frame)                       : 0.337
  22. Stream size                              : 9.21 GiB (95%)
  23. Writing library                          : x264 core 155 r2917 0a84d98
  24. Encoding settings                        : cabac=1 / ref=5 / deblock=1:-3:-3 / analyse=0x3:0x133 / me=umh / subme=10 / psy=1 / psy_rd=1.00:0.00 / mixed_ref=1 / me_range=32 / chroma_me=1 / trellis=2 / 8x8dct=1 / cqm=0 / deadzone=21,11 / fast_pskip=0 / chroma_qp_offset=-2 / threads=25 / lookahead_threads=6 / sliced_threads=0 / nr=0 / decimate=0 / interlaced=0 / bluray_compat=0 / constrained_intra=0 / bframes=16 / b_pyramid=2 / b_adapt=2 / b_bias=0 / direct=3 / weightb=1 / open_gop=0 / weightp=1 / keyint=240 / keyint_min=24 / scenecut=40 / intra_refresh=0 / rc_lookahead=60 / rc=crf / mbtree=0 / crf=15.0 / qcomp=0.60 / qpmin=0 / qpmax=69 / qpstep=4 / vbv_maxrate=62500 / vbv_bufsize=78125 / crf_max=0.0 / nal_hrd=none / filler=0 / ip_ratio=1.40 / pb_ratio=1.30 / aq=1:0.70
  25. Default                                  : Yes
  26. Forced                                   : No
  27. Color range                              : Limited
  28. Color primaries                          : BT.709
  29. Transfer characteristics                 : BT.709
  30. Matrix coefficients                      : BT.709
  31. Audio
  32. ID                                       : 2
  33. Format                                   : AC-3
  34. Format/Info                              : Audio Coding 3
  35. Commercial name                          : Dolby Digital
  36. Codec ID                                 : A_AC3
  37. Duration                                 : 1 h 46 min
  38. Bit rate mode                            : Constant
  39. Bit rate                                 : 640 kb/s
  40. Channel(s)                               : 6 channels
  41. Channel layout                           : L R C LFE Ls Rs
  42. Sampling rate                            : 48.0 kHz
  43. Frame rate                               : 31.250 FPS (1536 SPF)
  44. Compression mode                         : Lossy
  45. Stream size                              : 486 MiB (5%)
  46. Language                                 : German
  47. Service kind                             : Complete Main
  48. Default                                  : Yes
  49. Forced                                   : No
  50. Text #1
  51. ID                                       : 3
  52. Format                                   : UTF-8
  53. Codec ID                                 : S_TEXT/UTF8
  54. Codec ID/Info                            : UTF-8 Plain Text
  55. Duration                                 : 1 h 38 min
  56. Bit rate                                 : 66 b/s
  57. Count of elements                        : 1419
  58. Stream size                              : 48.1 KiB (0%)
  59. Language                                 : English
  60. Default                                  : Yes
  61. Forced                                   : No
  62. Text #2
  63. ID                                       : 4
  64. Format                                   : UTF-8
  65. Codec ID                                 : S_TEXT/UTF8
  66. Codec ID/Info                            : UTF-8 Plain Text
  67. Duration                                 : 1 h 40 min
  68. Bit rate                                 : 74 b/s
  69. Count of elements                        : 1572
  70. Stream size                              : 55.3 KiB (0%)
  71. Language                                 : German
  72. Default                                  : No
  73. Forced                                   : No
  74. Menu
  75. 00:00:00.000                             : :00:00:00.000
  76. 00:10:35.167                             : :00:10:35.167
  77. 00:19:02.833                             : :00:19:02.833
  78. 00:29:05.833                             : :00:29:05.833
  79. 00:37:41.625                             : :00:37:41.625
  80. 00:47:10.542                             : :00:47:10.542
  81. 00:58:38.042                             : :00:58:38.042
  82. 01:08:24.500                             : :01:08:24.500
  83. 01:21:47.167                             : :01:21:47.167
  84. 01:31:19.833                             : :01:31:19.833
  85. 01:41:11.125                             : :01:41:11.125
复制代码



                                       
                                       

                                       
                                       
                                       




回复

使用道具 举报

懒得打字嘛,点击右侧快捷回复 【右侧内容,后台自定义】
您需要登录后才可以回帖 登录 | 立即加入

本版积分规则

Archiver| |网站地图

Copyright © 2024 Comsenz Inc. Powered by 蓝光电影网

本站内容由用户自主分享和转载自互联网,转载目的在于传递更多信息,并不代表本网赞同其观点和对其真实性负责。

如有侵权、违反国家法律政策行为,请联系我们,我们会第一时间及时清除和处理!

举报反馈邮箱:4k1080.com@gmail.com

快速回复 返回顶部 返回列表