找回密码

查看: 1194|回复: 0

[动作] 毁灭者科南/毁灭者柯南 Conan.The.Destroyer.1984.1080p.BluRay.x264-Japhson 7.64GB

[复制链接]
蓝光币
2039
发表于 2019-6-12 12:36:10 | 显示全部楼层 |阅读模式


◎译  名 扑灭者科南 / 扑灭者柯南
◎片  名 Conan the Destroyer
◎年  代 1984
◎产  地 美国
◎类  别 行动 / 奇异 / 冒险
◎语  言 英语
◎上映日期 1984-06-29
◎IMDb评分  5.9/10 from 71409 users
◎IMDb链接  http://www.imdb.com/title/tt0087078
◎豆瓣评分 6.3/10 from 852 users
◎豆瓣链接 https://movie.douban.com/subject/1292991/
◎片  长 103 分钟
◎导  演 理查德·弗莱彻 Richard Fleischer
◎编  剧 罗伯特·霍华德 Robert E. Howard / 罗伊·托马斯 Roy Thomas
◎主  演 阿诺·施瓦辛格 Arnold Schwarzenegger
      葛蕾丝·琼斯 Grace Jones
      威尔特·张伯伦 Wilt Chamberlain
      岩松信 Mako
      崔西·沃特 Tracey Walter
      莎拉·道格拉斯 Sarah Douglas
      奥利薇亚·阿波 Olivia d'Abo
      帕特·罗奇 Pat Roach
      杰夫·科里 Jeff Corey
      史文-欧尔·托尔森 Sven-Ole Thorsen
      Bruce Fleischer
      费迪·梅恩 Ferdy Mayne

◎标  签 美国 | 行动 | 奇异 | 施瓦辛格 | 魔幻 | 1984 | 美国电影 | Arnold.Schwarzenegger
◎简  介  
  在传闻中豪杰辈出的年月,凶悍的西米里族豪杰柯南(阿诺德·施瓦辛格 Arnold Schwarzenegger 饰)为了让心爱的瓦莱里亚新生,只得接管了异族女王塔拉米斯的要求,陪伴女王的侄女珍娜获得魔法钥匙“邪恶之心”。珍娜是太古卷轴上记录的天选之人,只要她才能获得钥匙,开启传闻中的宝藏,而塔拉米斯的计划是操纵柯南庇护珍娜,在成功后把他们全数杀死,塔拉米斯派出侍卫长邦伯塔与柯南同业并黑暗监视。柯南一行在路上救下了东方巫师和黑人女战士,加上盗贼好友,七人到达了藏着邪恶之心的湖中城堡,城中的巫师施法将珍娜夺走,柯南等人力战终究救出珍娜,而这仅仅是冒险之旅的初步……
  1. Video
  2. ID                                       : 1
  3. Format                                   : AVC
  4. Format/Info                              : Advanced Video Codec
  5. Format profile                           : [email protected]
  6. Format settings, CABAC                   : Yes
  7. Format settings, ReFrames                : 5 frames
  8. Muxing mode                              : Header stripping
  9. Codec ID                                 : V_MPEG4/ISO/AVC
  10. Duration                                 : 1 h 41 min
  11. Bit rate                                 : 9 297 kb/s
  12. Width                                    : 1 920 pixels
  13. Height                                   : 816 pixels
  14. Display aspect ratio                     : 2.35:1
  15. Frame rate mode                          : Constant
  16. Frame rate                               : 23.976 (24000/1001) FPS
  17. Color space                              : YUV
  18. Chroma subsampling                       : 4:2:0
  19. Bit depth                                : 8 bits
  20. Scan type                                : Progressive
  21. Bits/(Pixel*Frame)                       : 0.247
  22. Stream size                              : 6.42 GiB (84%)
  23. Writing library                          : x264 core 115 r2008 4c552d8
  24. Encoding settings                        : cabac=1 / ref=5 / deblock=1:-1:-1 / analyse=0x3:0x113 / me=umh / subme=7 / psy=1 / psy_rd=1.00:0.00 / mixed_ref=1 / me_range=16 / chroma_me=1 / trellis=1 / 8x8dct=1 / cqm=0 / deadzone=21,11 / fast_pskip=1 / chroma_qp_offset=-2 / threads=12 / sliced_threads=0 / nr=0 / decimate=1 / interlaced=0 / bluray_compat=0 / constrained_intra=0 / bframes=3 / b_pyramid=2 / b_adapt=2 / b_bias=0 / direct=3 / weightb=1 / open_gop=0 / weightp=2 / keyint=250 / keyint_min=23 / scenecut=40 / intra_refresh=0 / rc_lookahead=40 / rc=2pass / mbtree=1 / bitrate=9297 / ratetol=1.0 / qcomp=0.60 / qpmin=0 / qpmax=69 / qpstep=4 / cplxblur=20.0 / qblur=0.5 / vbv_maxrate=50000 / vbv_bufsize=50000 / nal_hrd=none / ip_ratio=1.40 / aq=1:1.00
  25. Language                                 : English
  26. Default                                  : Yes
  27. Forced                                   : Yes
  28. Audio
  29. ID                                       : 2
  30. Format                                   : DTS
  31. Format/Info                              : Digital Theater Systems
  32. Mode                                     : 16
  33. Format settings, Endianness              : Big
  34. Muxing mode                              : Header stripping
  35. Codec ID                                 : A_DTS
  36. Duration                                 : 1 h 41 min
  37. Bit rate mode                            : Constant
  38. Bit rate                                 : 1 509 kb/s
  39. Channel(s)                               : 6 channels
  40. Channel positions                        : Front: L C R, Side: L R, LFE
  41. Sampling rate                            : 48.0 kHz
  42. Frame rate                               : 93.750 FPS (512 spf)
  43. Bit depth                                : 24 bits
  44. Compression mode                         : Lossy
  45. Stream size                              : 1.07 GiB (14%)
  46. Language                                 : English
  47. Default                                  : Yes
  48. Forced                                   : Yes
复制代码









                                       
                                       

                                       
                                       
                                       




回复

使用道具 举报

懒得打字嘛,点击右侧快捷回复 【右侧内容,后台自定义】
您需要登录后才可以回帖 登录 | 立即加入

本版积分规则

Archiver| |网站地图

Copyright © 2024 Comsenz Inc. Powered by 蓝光电影网

本站内容由用户自主分享和转载自互联网,转载目的在于传递更多信息,并不代表本网赞同其观点和对其真实性负责。

如有侵权、违反国家法律政策行为,请联系我们,我们会第一时间及时清除和处理!

举报反馈邮箱:4k1080.com@gmail.com

快速回复 返回顶部 返回列表