找回密码

查看: 862|回复: 0

[喜剧] 异性 The.Opposite.Sex.1956.1080p.BluRay.x264.FLAC.2.0-HANDJOB 9.27GB

[复制链接]
蓝光币
2048
发表于 2021-1-3 09:09:21 | 显示全部楼层 |阅读模式


◎译  名 同性
◎片  名 The Opposite Sex
◎年  代 1956
◎产  地 美国
◎类  别 笑剧 / 恋爱 / 歌舞
◎语  言 英语
◎上映日期 1956
◎IMDb评分  6.1/10 from 1395 users
◎IMDb链接  https://www.imdb.com/title/tt0049578/
◎豆瓣评分 /10 from 0 users
◎豆瓣链接 https://movie.douban.com/subject/5061364/
◎片  长 USA: 117 分钟
◎导  演 大卫·米勒 David Miller
◎编  剧 克雷·布斯·卢斯 Clare Boothe Luce / 费伊·卡宁 Fay Kanin / 迈克尔·卡宁 Michael Kanin
◎主  演 琼·阿利森 June Allyson
       琼·柯琳斯 Joan Collins
       安·米勒 Ann Miller
       多洛雷丝·格雷 Dolores Gray
       安·谢里登 Ann Sheridan
       阿格妮丝·摩尔海德 Agnes Moorehead
       琼·布朗德尔 Joan Blondell
       山姆莱文 Sam Levene
       哈罗德·米勒 Harold Miller
       西莉亚·罗斯基 Celia Lovsky
       Harry Tom McKenna
       艾丽斯·皮尔斯 Alice Pearce
       Forbes Murray
       Ann Morriss
       Joe McTurk
       伊娃·麦克维 Eve McVeagh
       Janet Lake
       Jess Kirkpatrick
       卢瓦娜·李 Luana Lee
       卡罗琳·琼斯 Carolyn Jones
       Helen Jay
       迪恩·琼斯 Dean Jones
       迈克·拉里 Mike Lally
       梅迪·诺曼 Maidie Norman
       胡安妮塔·摩尔 Juanita Moore
       Wilson Wood
       迪克·肖恩 Dick Shawn
       莱斯莉·帕里什 Leslie Parrish
       Art Mooney
       Marc Wilder
       邦尼·瓦特斯 Bunny Waters
       Allen K. Wood
       伯特史蒂文斯 Bert Stevens
       Dee Turnell
       Hal Taggart
       Sid Tomack
       Frank J. Scannell
       Jeff Richards
       Vernon Rich
       杰弗里·塞尔 Jeffrey Sayre
       Maxine Semon
       Gordon Richards
       哈里·詹姆斯 Harry James
       Jean Andren
       Gail Bonney
       Lela Bliss
       Jack Daly
       Marvin Bryan
       安娜卡普莉 Ahna Capri
       George Cisar
       Barrie Chase
       简阿尔翁 Jan Arvan
       Barbara Jo Allen
       莱斯利·尼尔森 Leslie Nielsen
       艾伦·马歇尔 Alan Marshal
       吉姆·巴克斯 Jim Backus
       Charlotte Lawrence
       Bob Hopkins
       加布里尔·柯蒂兹 Gabriel Curtiz
       Joseph Corey
       Dudley Dickerson
       Harry Harvey Jr.
       玛丽艾伦霍坎森 Mary Alan Hokanson
       夏洛特·格林伍德 Charlotte Greenwood
       比尔·戈德温 Bill Goodwin
       Jonathan Hole
       山姆·哈里斯 Sam Harris
       Richard Grant
       乔尔·弗吕莱恩 Joel Fluellen
       Sandy Descher
       Darlene Engle
       Robert Carson
       Dian Fauntelle
       Estelle Etterre
       Jeanne Dante
       Sayre Dearing
       富兰克林·法纳姆 Franklyn Farnum
       唐·迪拉韦 Don Dillaway
       贝丝·弗劳尔斯 Bess Flowers
◎标  签 美国 | Joan_Blondell | 1950s | 阿格妮丝·摩尔海德 | 电影 | 笑剧 | JuneAllyson | Joan_Collins
◎简  介


  暂无相关剧情先容
◎获奖情况
  第14届金球奖 ?(1957)
  电影类最好音乐/笑剧片(提名)
  1. Video
  2. ID                                       : 1
  3. Format                                   : AVC
  4. Format/Info                              : Advanced Video Codec
  5. Format profile                           : [email protected]
  6. Format settings                          : CABAC / 5 Ref Frames
  7. Format settings, CABAC                   : Yes
  8. Format settings, Reference frames        : 5 frames
  9. Codec ID                                 : V_MPEG4/ISO/AVC
  10. Duration                                 : 1 h 56 min
  11. Bit rate                                 : 10.9 Mb/s
  12. Width                                    : 1 920 pixels
  13. Height                                   : 816 pixels
  14. Display aspect ratio                     : 2.35:1
  15. Frame rate mode                          : Constant
  16. Frame rate                               : 23.976 (24000/1001/189150) FPS
  17. Color space                              : YUV
  18. Chroma subsampling                       : 4:2:0
  19. Bit depth                                : 8 bits
  20. Scan type                                : Progressive
  21. Bits/(Pixel*Frame)                       : 0.291
  22. Stream size                              : 8.90 GiB (96%)
  23. Writing library                          : x264 core 157 r2935 545de2f
  24. Encoding settings                        : cabac=1 / ref=5 / deblock=1:-3:-3 / analyse=0x3:0x133 / me=umh / subme=11 / psy=1 / psy_rd=1.05:0.00 / mixed_ref=1 / me_range=32 / chroma_me=1 / trellis=2 / 8x8dct=1 / cqm=0 / deadzone=21,11 / fast_pskip=0 / chroma_qp_offset=-2 / threads=25 / lookahead_threads=6 / sliced_threads=0 / nr=0 / decimate=0 / interlaced=0 / bluray_compat=0 / constrained_intra=0 / bframes=16 / b_pyramid=2 / b_adapt=2 / b_bias=0 / direct=3 / weightb=1 / open_gop=0 / weightp=2 / keyint=240 / keyint_min=24 / scenecut=40 / intra_refresh=0 / rc_lookahead=60 / rc=crf / mbtree=0 / crf=19.2 / qcomp=0.65 / qpmin=0 / qpmax=69 / qpstep=4 / vbv_maxrate=62500 / vbv_bufsize=78125 / crf_max=0.0 / nal_hrd=none / filler=0 / ip_ratio=1.30 / pb_ratio=1.20 / aq=1:0.70
  25. Default                                  : Yes
  26. Forced                                   : No
  27. Color range                              : Limited
  28. Color primaries                          : BT.709
  29. Transfer characteristics                 : BT.709
  30. Matrix coefficients                      : BT.709
  31. Audio
  32. ID                                       : 2
  33. Format                                   : FLAC
  34. Format/Info                              : Free Lossless Audio Codec
  35. Codec ID                                 : A_FLAC
  36. Duration                                 : 1 h 56 min
  37. Bit rate mode                            : Variable
  38. Bit rate                                 : 453 kb/s
  39. Channel(s)                               : 2 channels
  40. Channel layout                           : L R
  41. Sampling rate                            : 48.0 kHz
  42. Frame rate                               : 11.719 FPS (4096 SPF)
  43. Bit depth                                : 16 bits
  44. Compression mode                         : Lossless
  45. Stream size                              : 378 MiB (4%)
  46. Writing library                          : libFLAC 1.3.1 (UTC 2014-11-25)
  47. Language                                 : English
  48. Default                                  : Yes
  49. Forced                                   : No
  50. Text
  51. ID                                       : 3
  52. Format                                   : UTF-8
  53. Codec ID                                 : S_TEXT/UTF8
  54. Codec ID/Info                            : UTF-8 Plain Text
  55. Duration                                 : 1 h 55 min
  56. Bit rate                                 : 88 b/s
  57. Count of elements                        : 2308
  58. Stream size                              : 74.7 KiB (0%)
  59. Language                                 : English
  60. Default                                  : No
  61. Forced                                   : No
  62. Menu
  63. 00:00:00.000                             : :Chapter 1
  64. 00:01:06.733                             : :Chapter 2
  65. 00:03:02.849                             : :Chapter 3
  66. 00:04:01.450                             : :Chapter 4
  67. 00:04:33.231                             : :Chapter 5
  68. 00:06:07.409                             : :Chapter 6
  69. 00:08:03.024                             : :Chapter 7
  70. 00:09:03.835                             : :Chapter 8
  71. 00:13:50.621                             : :Chapter 9
  72. 00:16:54.222                             : :Chapter 10
  73. 00:18:32.737                             : :Chapter 11
  74. 00:19:44.642                             : :Chapter 12
  75. 00:21:40.591                             : :Chapter 13
  76. 00:24:48.821                             : :Chapter 14
  77. 00:28:10.147                             : :Chapter 15
  78. 00:29:55.419                             : :Chapter 16
  79. 00:32:03.422                             : :Chapter 17
  80. 00:34:06.545                             : :Chapter 18
  81. 00:37:40.884                             : :Chapter 19
  82. 00:40:02.692                             : :Chapter 20
  83. 00:40:51.991                             : :Chapter 21
  84. 00:43:44.872                             : :Chapter 22
  85. 00:46:11.269                             : :Chapter 23
  86. 00:46:51.767                             : :Chapter 24
  87. 00:50:06.837                             : :Chapter 25
  88. 00:53:15.275                             : :Chapter 26
  89. 00:54:39.860                             : :Chapter 27
  90. 00:55:14.603                             : :Chapter 28
  91. 00:56:35.267                             : :Chapter 29
  92. 00:58:34.720                             : :Chapter 30
  93. 00:59:29.608                             : :Chapter 31
  94. 01:01:51.625                             : :Chapter 32
  95. 01:06:17.724                             : :Chapter 33
  96. 01:07:57.991                             : :Chapter 34
  97. 01:09:49.102                             : :Chapter 35
  98. 01:12:37.562                             : :Chapter 36
  99. 01:13:53.804                             : :Chapter 37
  100. 01:16:23.621                             : :Chapter 38
  101. 01:18:51.060                             : :Chapter 39
  102. 01:21:01.482                             : :Chapter 40
  103. 01:24:08.627                             : :Chapter 41
  104. 01:25:43.597                             : :Chapter 42
  105. 01:30:11.740                             : :Chapter 43
  106. 01:31:52.257                             : :Chapter 44
  107. 01:36:18.982                             : :Chapter 45
  108. 01:39:12.238                             : :Chapter 46
  109. 01:40:28.773                             : :Chapter 47
  110. 01:43:07.056                             : :Chapter 48
  111. 01:45:05.174                             : :Chapter 49
  112. 01:48:31.547                             : :Chapter 50
  113. 01:49:22.181                             : :Chapter 51
  114. 01:51:30.267                             : :Chapter 52
  115. 01:52:19.316                             : :Chapter 53
  116. 01:53:49.823                             : :Chapter 54
  117. 01:55:46.982                             : :Chapter 55
复制代码



                                       
                                       

                                       
                                       
                                       




回复

使用道具 举报

懒得打字嘛,点击右侧快捷回复 【右侧内容,后台自定义】
您需要登录后才可以回帖 登录 | 立即加入

本版积分规则

Archiver| |网站地图

Copyright © 2024 Comsenz Inc. Powered by 蓝光电影网

本站内容由用户自主分享和转载自互联网,转载目的在于传递更多信息,并不代表本网赞同其观点和对其真实性负责。

如有侵权、违反国家法律政策行为,请联系我们,我们会第一时间及时清除和处理!

举报反馈邮箱:4k1080.com@gmail.com

快速回复 返回顶部 返回列表