找回密码

查看: 2373|回复: 0

[惊悚] 信使 The.Courier.2020.1080p.BluRay.REMUX.AVC.DTS-HD.MA.5.1-FGT 29.93GB

[复制链接]
蓝光币
2039
发表于 2021-6-1 11:05:45 | 显示全部楼层 |阅读模式


◎译  名 信使/Ironbark/军情情报(港)/情报职员/铁幕行动(台)/铁皮木
◎片  名 The Courier
◎年  代 2020
◎产  地 英国,美国
◎类  别 惊悚
◎语  言 英语
◎上映日期 2020-01-24(圣丹斯电影节) / 2021-03-19(美国) / 2021-05-17(英国)
◎豆瓣评分 7.3/10 from 6941 users
◎豆瓣链接 https://movie.douban.com/subject/30212001/
◎片  长 111分钟
◎导  演 多米尼克·库克 Dominic Cooke
◎编  剧 汤姆·奥康纳 Tom O'Connor
◎主  演 本尼迪克特·康伯巴奇 Benedict Cumberbatch
       瑞秋·布罗斯纳安 Rachel Brosnahan
       梅拉布·尼尼泽 Merab Ninidze
       玛丽亚·米罗诺娃 Mariya Mironova
       安东·莱瑟 Anton Lesser
       安格斯·瑞特 Angus Wright
       大卫·巴克·琼斯 David Bark-Jones
       米尔斯·理查森 Miles Richardson
       杰西·巴克利 Jessie Buckley
       基里尔·彼洛高夫 Kirill Pirogov
       Yuri Klimov
       马里安·洛伦西克 Marian Lorencik
       艾丽丝·奥尔尤因 Alice Orr-Ewing
       乔纳森·哈登 Jonathan Harden
       伊莲娜·艾尔米纳斯 Elina Alminas
       阿勒斯·比利克 Ales Bilík
       安德烈·库尔加诺夫 Andrey Kurganov
       奥德·马利 Ondrej Maly
       贝恩·科拉科 Bern Colla?o
       迪诺·布加迪 Deano Bugatti
       拉塞尔·巴洛格 Russell Balogh
       约瑟夫·巴德拉玛 Joseph Balderrama
       Angus Wright
◎标  签 特务 | 冷战 | 英国 | 卷福 | 战争 | 英国电影 | BenedictCumberbatch | 2020
◎简  介


  按照英国贩子葛雷维尔韦恩(Greville Wynne)的实在故事改编。
  
  《信使》描写葛雷维尔(本尼迪克特·康伯巴奇 饰)在冷战时代与苏联线人欧列格潘科夫斯基(Oleg Penkovsky),黑暗辅佐中情局渗透苏联的核子计划,并供给了成功阻止古巴导弹危机的重要情报。
  1. Video
  2. ID                                       : 1
  3. ID in the original source medium         : 4113 (0x1011)
  4. Format                                   : AVC
  5. Format/Info                              : Advanced Video Codec
  6. Format profile                           : [email protected]
  7. Format settings                          : CABAC / 4 Ref Frames
  8. Format settings, CABAC                   : Yes
  9. Format settings, Reference frames        : 4 frames
  10. Codec ID                                 : V_MPEG4/ISO/AVC
  11. Duration                                 : 1 h 52 min
  12. Bit rate mode                            : Variable
  13. Bit rate                                 : 34.5 Mb/s
  14. Maximum bit rate                         : 37.0 Mb/s
  15. Width                                    : 1 920 pixels
  16. Height                                   : 1 080 pixels
  17. Display aspect ratio                     : 16:9
  18. Frame rate mode                          : Constant
  19. Frame rate                               : 23.976 (24000/1001/189150) FPS
  20. Color space                              : YUV
  21. Chroma subsampling                       : 4:2:0
  22. Bit depth                                : 8 bits
  23. Scan type                                : Progressive
  24. Bits/(Pixel*Frame)                       : 0.695
  25. Stream size                              : 27.0 GiB (90%)
  26. Language                                 : English
  27. Default                                  : No
  28. Forced                                   : No
  29. Original source medium                   : Blu-ray
  30. Audio #1
  31. ID                                       : 2
  32. ID in the original source medium         : 4352 (0x1100)
  33. Format                                   : DTS XLL
  34. Format/Info                              : Digital Theater Systems
  35. Commercial name                          : DTS-HD Master Audio
  36. Codec ID                                 : A_DTS
  37. Duration                                 : 1 h 52 min
  38. Bit rate mode                            : Variable
  39. Bit rate                                 : 3 489 kb/s
  40. Channel(s)                               : 6 channels
  41. Channel layout                           : C L R Ls Rs LFE
  42. Sampling rate                            : 48.0 kHz
  43. Frame rate                               : 93.750 FPS (512 SPF)
  44. Bit depth                                : 24 bits
  45. Compression mode                         : Lossless
  46. Stream size                              : 2.73 GiB (9%)
  47. Title                                    : DTS-HD MA 5.1
  48. Language                                 : English
  49. Default                                  : Yes
  50. Forced                                   : No
  51. Original source medium                   : Blu-ray
  52. Audio #2
  53. ID                                       : 3
  54. ID in the original source medium         : 4353 (0x1101)
  55. Format                                   : AC-3
  56. Format/Info                              : Audio Coding 3
  57. Commercial name                          : Dolby Digital
  58. Codec ID                                 : A_AC3
  59. Duration                                 : 1 h 52 min
  60. Bit rate mode                            : Constant
  61. Bit rate                                 : 192 kb/s
  62. Channel(s)                               : 2 channels
  63. Channel layout                           : L R
  64. Sampling rate                            : 48.0 kHz
  65. Frame rate                               : 31.250 FPS (1536 SPF)
  66. Compression mode                         : Lossy
  67. Stream size                              : 154 MiB (1%)
  68. Title                                    : DD 2.0
  69. Language                                 : English
  70. Service kind                             : Complete Main
  71. Default                                  : No
  72. Forced                                   : No
  73. Original source medium                   : Blu-ray
  74. Text #1
  75. ID                                       : 4
  76. Format                                   : UTF-8
  77. Codec ID                                 : S_TEXT/UTF8
  78. Codec ID/Info                            : UTF-8 Plain Text
  79. Duration                                 : 1 h 43 min
  80. Bit rate                                 : 46 b/s
  81. Count of elements                        : 1005
  82. Stream size                              : 35.5 KiB (0%)
  83. Title                                    : English-SRT
  84. Language                                 : English
  85. Default                                  : Yes
  86. Forced                                   : No
  87. Text #2
  88. ID                                       : 5
  89. ID in the original source medium         : 4608 (0x1200)
  90. Format                                   : PGS
  91. Muxing mode                              : zlib
  92. Codec ID                                 : S_HDMV/PGS
  93. Codec ID/Info                            : Picture based subtitle format used on BDs/HD-DVDs
  94. Duration                                 : 1 h 43 min
  95. Bit rate                                 : 32.9 kb/s
  96. Count of elements                        : 2321
  97. Stream size                              : 24.4 MiB (0%)
  98. Title                                    : English-PGS
  99. Language                                 : English
  100. Default                                  : No
  101. Forced                                   : No
  102. Original source medium                   : Blu-ray
  103. Text #3
  104. ID                                       : 6
  105. ID in the original source medium         : 4609 (0x1201)
  106. Format                                   : PGS
  107. Muxing mode                              : zlib
  108. Codec ID                                 : S_HDMV/PGS
  109. Codec ID/Info                            : Picture based subtitle format used on BDs/HD-DVDs
  110. Duration                                 : 1 h 50 min
  111. Bit rate                                 : 31.1 kb/s
  112. Count of elements                        : 2245
  113. Stream size                              : 24.6 MiB (0%)
  114. Title                                    : Spanish-PGS
  115. Language                                 : Spanish
  116. Default                                  : No
  117. Forced                                   : No
  118. Original source medium                   : Blu-ray
  119. Menu
  120. 00:00:00.000                             : Chapter 01
  121. 00:05:01.134                             : Chapter 02
  122. 00:14:26.115                             : Chapter 03
  123. 00:22:49.076                             : Chapter 04
  124. 00:28:33.002                             : Chapter 05
  125. 00:34:35.031                             : Chapter 06
  126. 00:40:07.071                             : Chapter 07
  127. 00:45:46.368                             : Chapter 08
  128. 00:51:15.572                             : Chapter 09
  129. 00:57:35.285                             : Chapter 10
  130. 01:05:10.615                             : Chapter 11
  131. 01:12:18.584                             : Chapter 12
  132. 01:19:23.717                             : Chapter 13
  133. 01:27:03.551                             : Chapter 14
  134. 01:32:00.473                             : Chapter 15
  135. 01:41:22.242                             : Chapter 16
复制代码






                                       
                                       

                                       
                                       
                                       




回复

使用道具 举报

懒得打字嘛,点击右侧快捷回复 【右侧内容,后台自定义】
您需要登录后才可以回帖 登录 | 立即加入

本版积分规则

Archiver| |网站地图

Copyright © 2024 Comsenz Inc. Powered by 蓝光电影网

本站内容由用户自主分享和转载自互联网,转载目的在于传递更多信息,并不代表本网赞同其观点和对其真实性负责。

如有侵权、违反国家法律政策行为,请联系我们,我们会第一时间及时清除和处理!

举报反馈邮箱:4k1080.com@gmail.com

快速回复 返回顶部 返回列表