找回密码

查看: 991|回复: 0

[动作] 刺客战场/最后的刺客 Assassins.1995.iNTERNAL.1080p.BluRay.x264-MOOVEE 16.88GB

[复制链接]
蓝光币
2048
发表于 2019-6-12 12:34:34 | 显示全部楼层 |阅读模式


◎译  名 刺客疆场 / 最初的刺客
◎片  名 Assassins
◎年  代 1995
◎产  地 美国 / 法国
◎类  别 行动 / 惊悚 / 犯罪
◎语  言 英语 / 德语 / 西班牙语
◎上映日期 1995-10-06
◎IMDb评分  6.3/10 from 72671 users
◎IMDb链接  http://www.imdb.com/title/tt0112401
◎豆瓣评分 7.1/10 from 2920 users
◎豆瓣链接 https://movie.douban.com/subject/1295582/
◎片  长 132 分钟
◎导  演 Richard Donner
◎编  剧 安迪·沃卓斯基 Andy Wachowski / 拉娜·沃卓斯基 Lana Wachowski / 布莱恩·海尔格兰德 Brian Helgeland
◎主  演 Sylvester Stallone
      Antonio Banderas
      Julianne Moore
      Anatoli Davydov

◎标  签 行动 | 史泰龙 | 美国 | 安东尼奥·班德拉斯 | 美国电影 | 1995 | 杀手 | 典范
◎简  介  
  身为一位杀手,罗伯特(西尔维斯特·史泰龙 Sylvester Stallone 饰)有着自己不成摆荡的原则,那就是除了使命方针外,决不草菅人命。虽然与罗伯特是同业,但米高(安东尼奥·班德拉斯 Antonio Banderas 饰)的生死观却和罗伯特截然不同,他不但为了告竣目标不择手段,更是将业内“年高德劭”的罗伯特视作眼中钉肉中刺,欲除之尔后快。
布满了杀戮的生活令罗伯特感应厌倦,他决心再干最初一票,今后金盆洗手。很快,技术高明的罗伯特便捉住了方针使命——一位叫伊莉(朱丽安·摩尔 Julianne Moore 饰)的女贼,不幸的是,此时的伊莉和她手中代价两百万美圆的磁盘亦成为了米高的猎物。随着时候的推移,罗伯特渐渐的爱上了伊莉,与此同时,残暴的米高也离他们越来越近。
  1. Video
  2. ID                                       : 1
  3. Format                                   : AVC
  4. Format/Info                              : Advanced Video Codec
  5. Format profile                           : [email protected]
  6. Format settings, CABAC                   : Yes
  7. Format settings, ReFrames                : 4 frames
  8. Codec ID                                 : V_MPEG4/ISO/AVC
  9. Duration                                 : 2h 12mn
  10. Bit rate                                 : 14.0 Mbps
  11. Width                                    : 1 920 pixels
  12. Height                                   : 1 080 pixels
  13. Display aspect ratio                     : 16:9
  14. Frame rate mode                          : Constant
  15. Frame rate                               : 23.976 (24000/1001) fps
  16. Color space                              : YUV
  17. Chroma subsampling                       : 4:2:0
  18. Bit depth                                : 8 bits
  19. Scan type                                : Progressive
  20. Bits/(Pixel*Frame)                       : 0.281
  21. Stream size                              : 13.0 GiB (77%)
  22. Writing library                          : x264 core 148 r2762 90a61ec
  23. Encoding settings                        : cabac=1 / ref=4 / deblock=1:-3:-3 / analyse=0x3:0x133 / me=umh / subme=9 / psy=1 / psy_rd=1.00:0.00 / mixed_ref=1 / me_range=16 / chroma_me=1 / trellis=2 / 8x8dct=1 / cqm=0 / deadzone=21,11 / fast_pskip=1 / chroma_qp_offset=-2 / threads=18 / lookahead_threads=1 / sliced_threads=0 / nr=0 / decimate=1 / interlaced=0 / bluray_compat=0 / constrained_intra=0 / bframes=3 / b_pyramid=2 / b_adapt=2 / b_bias=0 / direct=3 / weightb=1 / open_gop=0 / weightp=2 / keyint=250 / keyint_min=23 / scenecut=40 / intra_refresh=0 / rc_lookahead=60 / rc=crf / mbtree=1 / crf=17.0 / qcomp=0.60 / qpmin=0 / qpmax=69 / qpstep=4 / ip_ratio=1.40 / aq=1:0.70
  24. Language                                 : English
  25. Default                                  : Yes
  26. Forced                                   : No

  27. Audio
  28. ID                                       : 2
  29. Format                                   : DTS
  30. Format/Info                              : Digital Theater Systems
  31. Format profile                           : MA / Core
  32. Mode                                     : 16
  33. Format settings, Endianness              : Big
  34. Codec ID                                 : A_DTS
  35. Duration                                 : 2h 12mn
  36. Bit rate mode                            : Variable / Constant
  37. Bit rate                                 : 4 128 Kbps / 1 509 Kbps
  38. Channel(s)                               : 6 channels
  39. Channel positions                        : Front: L C R, Side: L R, LFE
  40. Sampling rate                            : 48.0 KHz
  41. Frame rate                               : 93.750 fps (512 spf)
  42. Bit depth                                : 24 bits
  43. Compression mode                         : Lossless / Lossy
  44. Stream size                              : 3.83 GiB (23%)
  45. Title                                    : English
  46. Language                                 : English
  47. Default                                  : Yes
  48. Forced                                   : No

  49. Text #1
  50. ID                                       : 3
  51. Format                                   : PGS
  52. Muxing mode                              : zlib
  53. Codec ID                                 : S_HDMV/PGS
  54. Codec ID/Info                            : Picture based subtitle format used on BDs/HD-DVDs
  55. Duration                                 : 2h 12mn
  56. Bit rate                                 : 7 011 bps
  57. Count of elements                        : 2228
  58. Stream size                              : 6.63 MiB (0%)
  59. Title                                    : Danish
  60. Language                                 : Danish
  61. Default                                  : No
  62. Forced                                   : No

  63. Text #2
  64. ID                                       : 4
  65. Format                                   : PGS
  66. Muxing mode                              : zlib
  67. Codec ID                                 : S_HDMV/PGS
  68. Codec ID/Info                            : Picture based subtitle format used on BDs/HD-DVDs
  69. Duration                                 : 2h 10mn
  70. Bit rate                                 : 7 499 bps
  71. Count of elements                        : 2236
  72. Stream size                              : 6.98 MiB (0%)
  73. Title                                    : Dutch
  74. Language                                 : Dutch
  75. Default                                  : No
  76. Forced                                   : No

  77. Text #3
  78. ID                                       : 5
  79. Format                                   : PGS
  80. Muxing mode                              : zlib
  81. Codec ID                                 : S_HDMV/PGS
  82. Codec ID/Info                            : Picture based subtitle format used on BDs/HD-DVDs
  83. Duration                                 : 2h 12mn
  84. Bit rate                                 : 9 422 bps
  85. Count of elements                        : 2620
  86. Stream size                              : 8.92 MiB (0%)
  87. Title                                    : English
  88. Language                                 : English
  89. Default                                  : No
  90. Forced                                   : No

  91. Text #4
  92. ID                                       : 6
  93. Format                                   : PGS
  94. Muxing mode                              : zlib
  95. Codec ID                                 : S_HDMV/PGS
  96. Codec ID/Info                            : Picture based subtitle format used on BDs/HD-DVDs
  97. Duration                                 : 2h 12mn
  98. Bit rate                                 : 6 799 bps
  99. Count of elements                        : 2206
  100. Stream size                              : 6.43 MiB (0%)
  101. Title                                    : Finnish
  102. Language                                 : Finnish
  103. Default                                  : No
  104. Forced                                   : No

  105. Text #5
  106. ID                                       : 7
  107. Format                                   : PGS
  108. Muxing mode                              : zlib
  109. Codec ID                                 : S_HDMV/PGS
  110. Codec ID/Info                            : Picture based subtitle format used on BDs/HD-DVDs
  111. Duration                                 : 2h 10mn
  112. Bit rate                                 : 5 960 bps
  113. Count of elements                        : 1920
  114. Stream size                              : 5.55 MiB (0%)
  115. Title                                    : French
  116. Language                                 : French
  117. Default                                  : No
  118. Forced                                   : No

  119. Text #6
  120. ID                                       : 8
  121. Format                                   : PGS
  122. Muxing mode                              : zlib
  123. Codec ID                                 : S_HDMV/PGS
  124. Codec ID/Info                            : Picture based subtitle format used on BDs/HD-DVDs
  125. Duration                                 : 2h 12mn
  126. Bit rate                                 : 8 971 bps
  127. Count of elements                        : 2550
  128. Stream size                              : 8.49 MiB (0%)
  129. Title                                    : German
  130. Language                                 : German
  131. Default                                  : No
  132. Forced                                   : No

  133. Text #7
  134. ID                                       : 9
  135. Format                                   : PGS
  136. Muxing mode                              : zlib
  137. Codec ID                                 : S_HDMV/PGS
  138. Codec ID/Info                            : Picture based subtitle format used on BDs/HD-DVDs
  139. Duration                                 : 2h 12mn
  140. Bit rate                                 : 9 261 bps
  141. Count of elements                        : 2746
  142. Stream size                              : 8.77 MiB (0%)
  143. Title                                    : Italian
  144. Language                                 : Italian
  145. Default                                  : No
  146. Forced                                   : No

  147. Text #8
  148. ID                                       : 10
  149. Format                                   : PGS
  150. Muxing mode                              : zlib
  151. Codec ID                                 : S_HDMV/PGS
  152. Codec ID/Info                            : Picture based subtitle format used on BDs/HD-DVDs
  153. Duration                                 : 2h 3mn
  154. Bit rate                                 : 6 973 bps
  155. Count of elements                        : 2373
  156. Stream size                              : 6.18 MiB (0%)
  157. Title                                    : Japanese
  158. Language                                 : Japanese
  159. Default                                  : No
  160. Forced                                   : No

  161. Text #9
  162. ID                                       : 11
  163. Format                                   : PGS
  164. Muxing mode                              : zlib
  165. Codec ID                                 : S_HDMV/PGS
  166. Codec ID/Info                            : Picture based subtitle format used on BDs/HD-DVDs
  167. Duration                                 : 2h 12mn
  168. Bit rate                                 : 6 476 bps
  169. Count of elements                        : 2106
  170. Stream size                              : 6.13 MiB (0%)
  171. Title                                    : Norwegian
  172. Language                                 : Norwegian
  173. Default                                  : No
  174. Forced                                   : No

  175. Text #10
  176. ID                                       : 12
  177. Format                                   : PGS
  178. Muxing mode                              : zlib
  179. Codec ID                                 : S_HDMV/PGS
  180. Codec ID/Info                            : Picture based subtitle format used on BDs/HD-DVDs
  181. Duration                                 : 2h 12mn
  182. Bit rate                                 : 7 137 bps
  183. Count of elements                        : 1912
  184. Stream size                              : 6.75 MiB (0%)
  185. Title                                    : Portuguese
  186. Language                                 : Portuguese
  187. Default                                  : No
  188. Forced                                   : No

  189. Text #11
  190. ID                                       : 13
  191. Format                                   : PGS
  192. Muxing mode                              : zlib
  193. Codec ID                                 : S_HDMV/PGS
  194. Codec ID/Info                            : Picture based subtitle format used on BDs/HD-DVDs
  195. Duration                                 : 2h 12mn
  196. Bit rate                                 : 7 708 bps
  197. Count of elements                        : 2230
  198. Stream size                              : 7.29 MiB (0%)
  199. Title                                    : Spanish
  200. Language                                 : Spanish
  201. Default                                  : No
  202. Forced                                   : No

  203. Text #12
  204. ID                                       : 14
  205. Format                                   : PGS
  206. Muxing mode                              : zlib
  207. Codec ID                                 : S_HDMV/PGS
  208. Codec ID/Info                            : Picture based subtitle format used on BDs/HD-DVDs
  209. Duration                                 : 2h 12mn
  210. Bit rate                                 : 7 188 bps
  211. Count of elements                        : 2100
  212. Stream size                              : 6.80 MiB (0%)
  213. Title                                    : Swedish
  214. Language                                 : Swedish
  215. Default                                  : No
  216. Forced                                   : No

  217. Menu
  218. 00:00:00.000                             : en:00:00:00.000
  219. 00:05:35.293                             : en:00:05:35.293
  220. 00:10:00.934                             : en:00:10:00.934
  221. 00:14:44.467                             : en:00:14:44.467
  222. 00:17:39.100                             : en:00:17:39.100
  223. 00:19:01.640                             : en:00:19:01.640
  224. 00:24:35.015                             : en:00:24:35.015
  225. 00:30:03.719                             : en:00:30:03.719
  226. 00:31:34.184                             : en:00:31:34.184
  227. 00:34:57.804                             : en:00:34:57.804
  228. 00:36:47.414                             : en:00:36:47.414
  229. 00:37:56.774                             : en:00:37:56.774
  230. 00:44:13.442                             : en:00:44:13.442
  231. 00:48:12.473                             : en:00:48:12.473
  232. 00:55:02.216                             : en:00:55:02.216
  233. 00:59:54.925                             : en:00:59:54.925
  234. 01:03:05.699                             : en:01:03:05.699
  235. 01:06:50.506                             : en:01:06:50.506
  236. 01:08:38.448                             : en:01:08:38.448
  237. 01:12:37.270                             : en:01:12:37.270
  238. 01:17:07.331                             : en:01:17:07.331
  239. 01:20:52.556                             : en:01:20:52.556
  240. 01:22:00.499                             : en:01:22:00.499
  241. 01:27:24.281                             : en:01:27:24.281
  242. 01:31:34.989                             : en:01:31:34.989
  243. 01:35:18.004                             : en:01:35:18.004
  244. 01:41:39.802                             : en:01:41:39.802
  245. 01:42:59.840                             : en:01:42:59.840
  246. 01:46:12.116                             : en:01:46:12.116
  247. 01:47:33.530                             : en:01:47:33.530
  248. 01:52:24.196                             : en:01:52:24.196
  249. 01:55:42.602                             : en:01:55:42.602
  250. 01:57:09.773                             : en:01:57:09.773
  251. 01:59:17.984                             : en:01:59:17.984
  252. 02:01:53.640                             : en:02:01:53.640
  253. 02:03:05.712                             : en:02:03:05.712
  254. 02:06:34.879                             : en:02:06:34.879
复制代码




                                       
                                       

                                       
                                       
                                       




回复

使用道具 举报

懒得打字嘛,点击右侧快捷回复 【右侧内容,后台自定义】
您需要登录后才可以回帖 登录 | 立即加入

本版积分规则

Archiver| |网站地图

Copyright © 2024 Comsenz Inc. Powered by 蓝光电影网

本站内容由用户自主分享和转载自互联网,转载目的在于传递更多信息,并不代表本网赞同其观点和对其真实性负责。

如有侵权、违反国家法律政策行为,请联系我们,我们会第一时间及时清除和处理!

举报反馈邮箱:4k1080.com@gmail.com

快速回复 返回顶部 返回列表