找回密码

查看: 1993|回复: 0

[惊悚] 致命枷锁 Deadlock.1970.1080p.BluRay.REMUX.AVC.DTS-HD.MA.1.0-FGT 23.49GB

[复制链接]
蓝光币
2048
发表于 2021-5-13 14:21:50 | 显示全部楼层 |阅读模式


◎译  名 致命桎梏
◎片  名 Deadlock
◎年  代 1970
◎产  地 西德
◎类  别 惊悚 / 西部
◎语  言 英语
◎上映日期 1970-10-15
◎IMDb评分  6.6/10 from 1016 users
◎IMDb链接  https://www.imdb.com/title/tt0065620/
◎豆瓣评分 /10 from 0 users
◎豆瓣链接 https://movie.douban.com/subject/3193954/
◎片  长 85 分钟
◎导  演 罗兰·克利克 Roland Klick
◎编  剧 罗兰·克利克 Roland Klick
◎主  演 Arnold Marquis
       安东尼·道森 Anthony Dawson
       Siegurd Fitzek
       马夸德·博姆 Marquard Bohm
       马里奥·阿多夫 Mario Adorf
       玛莎·拉本 Mascha Rabben
◎标  签 德国 | 西部 | 美国 | 惊悚 | RolandKlick | 德语 | 德国|德语电影 | 人都是逼出来的
◎简  介


  In 1970, it seems as if Roland Klick set out to emulate Sergio Leone's "The Good, The Bad, And The Ugly", mixing it with Michelangelo Antonioni's "Zabriskie Point" to create a modern Sauerkraut Western (without horses, but rather a truck and a car). The story stars three characters, Marquard Bohm as the "Kid" (The Good), Siegurd Fitzek as "Mr. Sunshine" (The Bad), and Mario Adorf (can be seen in Dario Argento's "The Bird With The Crystal Plumage" as the reclusive cat eating painter) as "Mr. Dump" (The Ugly) (who again plays a reclusive man who lives in a dump??). The story begins with the Kid, who has just pulled off a heist (with a bullet wound in the arm), and is carrying millions of dollars in a case. Wandering aimlessly through the sunbaked desert, (he finally passes out and is left for dead) until Mr. Dump drives along and finds him and the money. Once back at Mr. Dump's residence (a sort of abandoned junk yard), the Kid warns Mr. Dump, that Mr. Sunshine (who apparently is the ringleader of this heist) will be coming for his money. Thus begins the cat and mouse story, of who will get the case of money. Mr. Dump also has two neighbors, an older (and apparently sexually crazy) woman and her pretty (but feral) daughter (who is obviously sexually curious of the Kid).
  
  The film is set in (what looks to be) a wasteland desert, which could have been a forerunner for films like "A Boy And His Dog" and "Road Warrior". Yet the film maintains a complete Sergio Leone feel to it. You get all the great close ups of the characters sweating in the sun, and the typical double crossing that took place in his westerns. The Kid in this movie also kind of resembles Charles Bronson's character in Leone's other masterpiece "Once Upon A Time In The West". But on the flipside, this film also kind of reminded me of Antonioni's "Zabriskie Point", in the surreal desert filming. Also the use of Kraut Rock band "Can", who's music score, will remind one of Pink Floyd's music score for Antonioni's film. The inspired use of Can, as the music score was a great choice, because though at times it does remind you of Pink Floyd, it also reminds me of Ennio Morricone's music score as well. The Kid's theme song seems to be "Whiskey Man" by Can, and this reminds me of the way you hear that unforgettable Clint Eastwood whistling theme, or the accompanying harmonica for Charles Bronson. Can's score embodies both stylizations perfectly. The film is pretty obscure, and there was very little information, that I could find on it. But it's worth searching out if you have an interest in different cult type movies from the late sixties, or an interest in Can. But the pacing is a little uneasy and the finale was a tad unclimatic (yet somehow downbeat). Though it's a German production, the English dubbing will remind you of the Spaghetti Westerns as well. Cool, but very weird.
  1. Video
  2. ID                                       : 1
  3. ID in the original source medium         : 4113 (0x1011)
  4. Format                                   : AVC
  5. Format/Info                              : Advanced Video Codec
  6. Format profile                           : [email protected]
  7. Format settings                          : CABAC / 3 Ref Frames
  8. Format settings, CABAC                   : Yes
  9. Format settings, Reference frames        : 3 frames
  10. Codec ID                                 : V_MPEG4/ISO/AVC
  11. Duration                                 : 1 h 33 min
  12. Bit rate mode                            : Variable
  13. Bit rate                                 : 35.0 Mb/s
  14. Maximum bit rate                         : 38.0 Mb/s
  15. Width                                    : 1 920 pixels
  16. Height                                   : 1 080 pixels
  17. Display aspect ratio                     : 16:9
  18. Frame rate mode                          : Constant
  19. Frame rate                               : 23.976 (24000/1001/189150) FPS
  20. Color space                              : YUV
  21. Chroma subsampling                       : 4:2:0
  22. Bit depth                                : 8 bits
  23. Scan type                                : Progressive
  24. Bits/(Pixel*Frame)                       : 0.704
  25. Stream size                              : 22.8 GiB (97%)
  26. Language                                 : English
  27. Default                                  : No
  28. Forced                                   : No
  29. Color range                              : Limited
  30. Color primaries                          : BT.709
  31. Transfer characteristics                 : BT.709
  32. Matrix coefficients                      : BT.709
  33. Original source medium                   : Blu-ray
  34. Audio
  35. ID                                       : 2
  36. ID in the original source medium         : 4353 (0x1101)
  37. Format                                   : DTS XLL
  38. Format/Info                              : Digital Theater Systems
  39. Commercial name                          : DTS-HD Master Audio
  40. Codec ID                                 : A_DTS
  41. Duration                                 : 1 h 33 min
  42. Bit rate mode                            : Variable
  43. Bit rate                                 : 1 095 kb/s
  44. Channel(s)                               : 1 channel
  45. Channel layout                           : C
  46. Sampling rate                            : 48.0 kHz
  47. Frame rate                               : 93.750 FPS (512 SPF)
  48. Bit depth                                : 24 bits
  49. Compression mode                         : Lossless
  50. Stream size                              : 729 MiB (3%)
  51. Title                                    : DTS-HD MA 1.0
  52. Language                                 : English
  53. Default                                  : Yes
  54. Forced                                   : No
  55. Original source medium                   : Blu-ray
  56. Text #1
  57. ID                                       : 3
  58. Format                                   : UTF-8
  59. Codec ID                                 : S_TEXT/UTF8
  60. Codec ID/Info                            : UTF-8 Plain Text
  61. Duration                                 : 1 h 20 min
  62. Bit rate                                 : 21 b/s
  63. Count of elements                        : 497
  64. Stream size                              : 12.8 KiB (0%)
  65. Title                                    : English-SRT
  66. Language                                 : English
  67. Default                                  : Yes
  68. Forced                                   : No
  69. Text #2
  70. ID                                       : 4
  71. ID in the original source medium         : 4609 (0x1201)
  72. Format                                   : PGS
  73. Muxing mode                              : zlib
  74. Codec ID                                 : S_HDMV/PGS
  75. Codec ID/Info                            : Picture based subtitle format used on BDs/HD-DVDs
  76. Duration                                 : 1 h 20 min
  77. Bit rate                                 : 12.1 kb/s
  78. Count of elements                        : 838
  79. Stream size                              : 7.03 MiB (0%)
  80. Language                                 : English
  81. Default                                  : No
  82. Forced                                   : No
  83. Original source medium                   : Blu-ray
  84. Text #3
  85. ID                                       : 5
  86. ID in the original source medium         : 4611 (0x1203)
  87. Format                                   : PGS
  88. Muxing mode                              : zlib
  89. Codec ID                                 : S_HDMV/PGS
  90. Codec ID/Info                            : Picture based subtitle format used on BDs/HD-DVDs
  91. Duration                                 : 1 h 20 min
  92. Bit rate                                 : 12.6 kb/s
  93. Count of elements                        : 814
  94. Stream size                              : 7.28 MiB (0%)
  95. Language                                 : English
  96. Default                                  : No
  97. Forced                                   : No
  98. Original source medium                   : Blu-ray
  99. Text #4
  100. ID                                       : 6
  101. ID in the original source medium         : 4611 (0x1203)
  102. Format                                   : PGS
  103. Muxing mode                              : zlib
  104. Codec ID                                 : S_HDMV/PGS
  105. Codec ID/Info                            : Picture based subtitle format used on BDs/HD-DVDs
  106. Duration                                 : 3 s 441 ms
  107. Bit rate                                 : 27.9 kb/s
  108. Count of elements                        : 2
  109. Stream size                              : 11.7 KiB (0%)
  110. Language                                 : English
  111. Default                                  : No
  112. Forced                                   : No
  113. Original source medium                   : Blu-ray
  114. Text #5
  115. ID                                       : 7
  116. ID in the original source medium         : 4613 (0x1205)
  117. Format                                   : PGS
  118. Muxing mode                              : zlib
  119. Codec ID                                 : S_HDMV/PGS
  120. Codec ID/Info                            : Picture based subtitle format used on BDs/HD-DVDs
  121. Duration                                 : 1 h 31 min
  122. Bit rate                                 : 41.5 kb/s
  123. Count of elements                        : 1430
  124. Stream size                              : 27.3 MiB (0%)
  125. Language                                 : English
  126. Default                                  : No
  127. Forced                                   : No
  128. Original source medium                   : Blu-ray
  129. Menu
  130. 00:00:00.000                             : Chapter 01
  131. 00:05:09.267                             : Chapter 02
  132. 00:09:37.285                             : Chapter 03
  133. 00:15:56.956                             : Chapter 04
  134. 00:22:16.793                             : Chapter 05
  135. 00:28:38.258                             : Chapter 06
  136. 00:33:36.723                             : Chapter 07
  137. 00:41:11.177                             : Chapter 08
  138. 00:47:45.821                             : Chapter 09
  139. 00:53:51.811                             : Chapter 10
  140. 01:02:55.354                             : Chapter 11
  141. 01:10:38.901                             : Chapter 12
  142. 01:16:46.101                             : Chapter 13
  143. 01:20:57.060                             : Chapter 14
  144. 01:25:30.375                             : Chapter 15
复制代码






                                       
                                       

                                       
                                       
                                       




回复

使用道具 举报

懒得打字嘛,点击右侧快捷回复 【右侧内容,后台自定义】
您需要登录后才可以回帖 登录 | 立即加入

本版积分规则

Archiver| |网站地图

Copyright © 2024 Comsenz Inc. Powered by 蓝光电影网

本站内容由用户自主分享和转载自互联网,转载目的在于传递更多信息,并不代表本网赞同其观点和对其真实性负责。

如有侵权、违反国家法律政策行为,请联系我们,我们会第一时间及时清除和处理!

举报反馈邮箱:4k1080.com@gmail.com

快速回复 返回顶部 返回列表