找回密码

查看: 1290|回复: 0

[喜剧] 虎凤假凰第二集/一笼傻鸟2 Birds.of.a.Feather.2.1980.DUBBED.1080p.BluRay.x264-GUACAMOLE 7.97GB

[复制链接]
蓝光币
2048
发表于 2020-12-30 23:26:02 | 显示全部楼层 |阅读模式


◎译  名 虎凤假凰第二集/一笼傻鸟2/假凤虚凰续集
◎片  名 Cage aux folles II, La
◎年  代 1980
◎产  地 法国,意大利
◎类  别 笑剧
◎语  言 法语
◎上映日期 1980-12-10
◎IMDb评分  5.8/10 from 1886 users
◎IMDb链接  https://www.imdb.com/title/tt0080489/
◎豆瓣评分 /10 from 0 users
◎豆瓣链接 https://movie.douban.com/subject/1304887/
◎片  长 Argentina: 99 分钟
◎导  演 埃德沃德·莫利纳罗 Edouard Molinaro
◎编  剧 弗朗西斯·韦贝尔 Francis Veber / 让·普瓦雷 Jean Poiret / 马赛罗·达农 Marcello Danon
◎主  演 米歇尔·塞罗尔 Michel Serrault
       乌戈·托尼亚齐 Ugo Tognazzi
       纳扎雷诺·纳塔莱 Nazzareno Natale
       格劳科·奥诺拉托 Glauco Onorato
       马塞尔·博祖菲 Marcel Bozzuffi
       内洛·帕扎菲尼 Nello Pazzafini
       保拉·布鲁布尼 Paola Borboni
       米歇尔·加拉布吕 Michel Galabru
       斯特凡·奥德朗 Stéphane Audran
◎标  签 法国 | 同道 | 笑剧 | 法国电影 | 电影 | 假凤虚凰 | aux | Cage
◎简  介


  本片是由《一笼傻鸟》的原班人马拍摄的续集。影片报告艾宾(米歇尔·塞侯 饰演)由于不满男友雷纳托说他年数大,因而扮成女人的样子走上大街,希望证实自己魅力不减。却不想半路碰到正在流亡的特务,卷入了一场国际特务战……
  1. Video
  2. ID                                       : 1
  3. Format                                   : AVC
  4. Format/Info                              : Advanced Video Codec
  5. Format profile                           : [email protected]
  6. Format settings                          : CABAC / 4 Ref Frames
  7. Format settings, CABAC                   : Yes
  8. Format settings, Reference frames        : 4 frames
  9. Codec ID                                 : V_MPEG4/ISO/AVC
  10. Duration                                 : 1 h 39 min
  11. Bit rate                                 : 11.3 Mb/s
  12. Width                                    : 1 808 pixels
  13. Height                                   : 1 080 pixels
  14. Display aspect ratio                     : 5:3
  15. Frame rate mode                          : Constant
  16. Frame rate                               : 23.976 (24000/1001/189150) FPS
  17. Color space                              : YUV
  18. Chroma subsampling                       : 4:2:0
  19. Bit depth                                : 8 bits
  20. Scan type                                : Progressive
  21. Bits/(Pixel*Frame)                       : 0.240
  22. Stream size                              : 7.81 GiB (98%)
  23. Writing library                          : x264 core 161 r3027 4121277
  24. Encoding settings                        : cabac=1 / ref=4 / deblock=1:-3:-3 / analyse=0x3:0x133 / me=umh / subme=9 / psy=1 / psy_rd=1.00:0.00 / mixed_ref=1 / me_range=16 / chroma_me=1 / trellis=2 / 8x8dct=1 / cqm=0 / deadzone=21,11 / fast_pskip=0 / chroma_qp_offset=-2 / threads=24 / lookahead_threads=2 / sliced_threads=0 / nr=0 / decimate=1 / interlaced=0 / bluray_compat=0 / constrained_intra=0 / bframes=3 / b_pyramid=2 / b_adapt=2 / b_bias=0 / direct=3 / weightb=1 / open_gop=0 / weightp=2 / keyint=250 / keyint_min=23 / scenecut=40 / intra_refresh=0 / rc_lookahead=60 / rc=crf / mbtree=1 / crf=21.0 / qcomp=0.60 / qpmin=0 / qpmax=69 / qpstep=4 / ip_ratio=1.40 / aq=3:0.60
  25. Default                                  : Yes
  26. Forced                                   : No
  27. Color range                              : Limited
  28. Color primaries                          : BT.709
  29. Transfer characteristics                 : BT.709
  30. Matrix coefficients                      : BT.709

  31. Audio
  32. ID                                       : 2
  33. Format                                   : FLAC
  34. Format/Info                              : Free Lossless Audio Codec
  35. Codec ID                                 : A_FLAC
  36. Duration                                 : 1 h 39 min
  37. Bit rate mode                            : Variable
  38. Bit rate                                 : 231 kb/s
  39. Channel(s)                               : 2 channels
  40. Channel layout                           : L R
  41. Sampling rate                            : 48.0 kHz
  42. Frame rate                               : 11.719 FPS (4096 SPF)
  43. Bit depth                                : 24 bits
  44. Compression mode                         : Lossless
  45. Stream size                              : 164 MiB (2%)
  46. Writing library                          : libFLAC 1.2.1 (UTC 2007-09-17)
  47. Language                                 : English
  48. Default                                  : Yes
  49. Forced                                   : No

  50. Text
  51. ID                                       : 3
  52. Format                                   : PGS
  53. Muxing mode                              : zlib
  54. Codec ID                                 : S_HDMV/PGS
  55. Codec ID/Info                            : Picture based subtitle format used on BDs/HD-DVDs
  56. Duration                                 : 1 h 33 min
  57. Bit rate                                 : 8 315 b/s
  58. Count of elements                        : 1504
  59. Stream size                              : 5.56 MiB (0%)
  60. Language                                 : German
  61. Default                                  : No
  62. Forced                                   : No

  63. Menu
  64. 00:00:00.000                             : en:00:00:00.000
  65. 00:06:08.076                             : en:00:06:08.076
  66. 00:15:12.036                             : en:00:15:12.036
  67. 00:17:18.913                             : en:00:17:18.913
  68. 00:20:42.575                             : en:00:20:42.575
  69. 00:25:18.809                             : en:00:25:18.809
  70. 00:32:58.810                             : en:00:32:58.810
  71. 00:37:20.113                             : en:00:37:20.113
  72. 00:42:07.984                             : en:00:42:07.984
  73. 00:47:51.285                             : en:00:47:51.285
  74. 00:58:01.812                             : en:00:58:01.812
  75. 01:04:08.511                             : en:01:04:08.511
  76. 01:10:15.545                             : en:01:10:15.545
  77. 01:18:20.738                             : en:01:18:20.738
  78. 01:25:16.111                             : en:01:25:16.111
  79. 01:33:40.448                             : en:01:33:40.448
复制代码



                                       
                                       

                                       
                                       
                                       




回复

使用道具 举报

懒得打字嘛,点击右侧快捷回复 【右侧内容,后台自定义】
您需要登录后才可以回帖 登录 | 立即加入

本版积分规则

Archiver| |网站地图

Copyright © 2024 Comsenz Inc. Powered by 蓝光电影网

本站内容由用户自主分享和转载自互联网,转载目的在于传递更多信息,并不代表本网赞同其观点和对其真实性负责。

如有侵权、违反国家法律政策行为,请联系我们,我们会第一时间及时清除和处理!

举报反馈邮箱:4k1080.com@gmail.com

快速回复 返回顶部 返回列表