找回密码

查看: 3463|回复: 1

[惊悚] 致命弯道/致命弯道7 Wrong.Turn.2021.1080p.BluRay.REMUX.AVC.DTS-HD.MA.5.1-FGT 30.26GB

[复制链接]
蓝光币
2048
发表于 2021-2-18 20:05:30 | 显示全部楼层 |阅读模式


◎译  名 致命弯道/致命弯道7/致命弯道重启版
◎片  名 Wrong Turn
◎年  代 2021
◎产  地 德国
◎类  别 惊悚 / 可骇
◎语  言 英语
◎上映日期 2021-01-26(美国)
◎IMDb评分  5.4/10 from 4181 users
◎IMDb链接  https://www.imdb.com/title/tt9110170/
◎豆瓣评分 5.9/10 from 2486 users
◎豆瓣链接 https://movie.douban.com/subject/30352897/
◎片  长 110分钟
◎导  演 迈克·P·纳尔逊 Mike P. Nelson
◎编  剧 阿兰·B·麦克埃尔罗伊 Alan B. McElroy
◎主  演 夏洛特·维嘉 Charlotte Vega
       艾玛·杜蒙特 Emma Dumont
       马修·莫迪恩 Matthew Modine
       黛茜·海德 Daisy Head
       比尔·萨奇 Bill Sage
       达米安·马菲 Damian Maffei
       迪伦·麦蒂 Dylan McTee
       科里·斯科特·艾伦 Cory Scott Allen
       阿德里安·法维拉 Adrian Favela
       大卫·哈奇森 David Hutchison
◎标  签 可骇 | 惊悚 | 2021 | 美国 | 美国电影 | *可骇 | 翻拍 | #系列
◎简  介


  一群密切的好朋友决议前往西弗吉尼亚州徒步观光,却意外碰到在对陌生人不友爱的部落,这是一个已经在山里居住了数百年的部落。面临好朋友相继遇难,女配角操纵自己的勇敢和聪明庇护自己,终极虎口脱险的故事。
  1. Video
  2. ID                                       : 1
  3. ID in the original source medium         : 4113 (0x1011)
  4. Format                                   : AVC
  5. Format/Info                              : Advanced Video Codec
  6. Format profile                           : [email protected]
  7. Format settings                          : CABAC / 4 Ref Frames
  8. Format settings, CABAC                   : Yes
  9. Format settings, Reference frames        : 4 frames
  10. Format settings, GOP                     : M=3, N=12
  11. Codec ID                                 : V_MPEG4/ISO/AVC
  12. Duration                                 : 1 h 50 min
  13. Bit rate mode                            : Variable
  14. Bit rate                                 : 35.7 Mb/s
  15. Maximum bit rate                         : 37.0 Mb/s
  16. Width                                    : 1 920 pixels
  17. Height                                   : 1 080 pixels
  18. Display aspect ratio                     : 16:9
  19. Frame rate mode                          : Constant
  20. Frame rate                               : 23.976 (24000/1001/189150) FPS
  21. Color space                              : YUV
  22. Chroma subsampling                       : 4:2:0
  23. Bit depth                                : 8 bits
  24. Scan type                                : Progressive
  25. Bits/(Pixel*Frame)                       : 0.718
  26. Stream size                              : 27.5 GiB (91%)
  27. Language                                 : English
  28. Default                                  : No
  29. Forced                                   : No
  30. Original source medium                   : Blu-ray
  31. Audio #1
  32. ID                                       : 2
  33. ID in the original source medium         : 4352 (0x1100)
  34. Format                                   : DTS XLL
  35. Format/Info                              : Digital Theater Systems
  36. Commercial name                          : DTS-HD Master Audio
  37. Codec ID                                 : A_DTS
  38. Duration                                 : 1 h 50 min
  39. Bit rate mode                            : Variable
  40. Bit rate                                 : 3 396 kb/s
  41. Channel(s)                               : 6 channels
  42. Channel layout                           : C L R Ls Rs LFE
  43. Sampling rate                            : 48.0 kHz
  44. Frame rate                               : 93.750 FPS (512 SPF)
  45. Bit depth                                : 24 bits
  46. Compression mode                         : Lossless
  47. Stream size                              : 2.61 GiB (9%)
  48. Title                                    : DTS-HD MA 5.1
  49. Language                                 : English
  50. Default                                  : Yes
  51. Forced                                   : No
  52. Original source medium                   : Blu-ray
  53. Audio #2
  54. ID                                       : 3
  55. ID in the original source medium         : 4353 (0x1101)
  56. Format                                   : AC-3
  57. Format/Info                              : Audio Coding 3
  58. Commercial name                          : Dolby Digital
  59. Codec ID                                 : A_AC3
  60. Duration                                 : 1 h 50 min
  61. Bit rate mode                            : Constant
  62. Bit rate                                 : 192 kb/s
  63. Channel(s)                               : 2 channels
  64. Channel layout                           : L R
  65. Sampling rate                            : 48.0 kHz
  66. Frame rate                               : 31.250 FPS (1536 SPF)
  67. Compression mode                         : Lossy
  68. Stream size                              : 151 MiB (0%)
  69. Title                                    : DD 2.0
  70. Language                                 : English
  71. Service kind                             : Complete Main
  72. Default                                  : No
  73. Forced                                   : No
  74. Original source medium                   : Blu-ray
  75. Text #1
  76. ID                                       : 4
  77. Format                                   : UTF-8
  78. Codec ID                                 : S_TEXT/UTF8
  79. Codec ID/Info                            : UTF-8 Plain Text
  80. Duration                                 : 1 h 46 min
  81. Bit rate                                 : 44 b/s
  82. Count of elements                        : 1296
  83. Stream size                              : 34.9 KiB (0%)
  84. Title                                    : English-SRT
  85. Language                                 : English
  86. Default                                  : Yes
  87. Forced                                   : No
  88. Text #2
  89. ID                                       : 5
  90. ID in the original source medium         : 4608 (0x1200)
  91. Format                                   : PGS
  92. Muxing mode                              : zlib
  93. Codec ID                                 : S_HDMV/PGS
  94. Codec ID/Info                            : Picture based subtitle format used on BDs/HD-DVDs
  95. Duration                                 : 1 h 47 min
  96. Bit rate                                 : 32.6 kb/s
  97. Count of elements                        : 3024
  98. Stream size                              : 25.1 MiB (0%)
  99. Title                                    : English-PGS
  100. Language                                 : English
  101. Default                                  : No
  102. Forced                                   : No
  103. Original source medium                   : Blu-ray
  104. Text #3
  105. ID                                       : 6
  106. ID in the original source medium         : 4609 (0x1201)
  107. Format                                   : PGS
  108. Muxing mode                              : zlib
  109. Codec ID                                 : S_HDMV/PGS
  110. Codec ID/Info                            : Picture based subtitle format used on BDs/HD-DVDs
  111. Duration                                 : 1 h 42 min
  112. Bit rate                                 : 27.0 kb/s
  113. Count of elements                        : 2596
  114. Stream size                              : 19.8 MiB (0%)
  115. Title                                    : Spanish-PGS
  116. Language                                 : Spanish
  117. Default                                  : No
  118. Forced                                   : No
  119. Original source medium                   : Blu-ray
  120. Menu
  121. 00:00:00.000                             : en:Chapter 01
  122. 00:05:22.363                             : en:Chapter 02
  123. 00:14:39.169                             : en:Chapter 03
  124. 00:20:43.825                             : en:Chapter 04
  125. 00:25:05.128                             : en:Chapter 05
  126. 00:32:36.537                             : en:Chapter 06
  127. 00:39:30.951                             : en:Chapter 07
  128. 00:44:12.858                             : en:Chapter 08
  129. 00:48:35.329                             : en:Chapter 09
  130. 00:58:29.380                             : en:Chapter 10
  131. 01:06:07.171                             : en:Chapter 11
  132. 01:14:34.970                             : en:Chapter 12
  133. 01:22:48.129                             : en:Chapter 13
  134. 01:29:33.534                             : en:Chapter 14
  135. 01:38:13.345                             : en:Chapter 15
  136. 01:43:54.061                             : en:Chapter 16
复制代码






                                       
                                       

                                       
                                       
                                       




回复

使用道具 举报

蓝光币
50
发表于 2021-9-11 21:57:02 | 显示全部楼层
能下载吗
回复

使用道具 举报

懒得打字嘛,点击右侧快捷回复 【右侧内容,后台自定义】
您需要登录后才可以回帖 登录 | 立即加入

本版积分规则

Archiver| |网站地图

Copyright © 2024 Comsenz Inc. Powered by 蓝光电影网

本站内容由用户自主分享和转载自互联网,转载目的在于传递更多信息,并不代表本网赞同其观点和对其真实性负责。

如有侵权、违反国家法律政策行为,请联系我们,我们会第一时间及时清除和处理!

举报反馈邮箱:4k1080.com@gmail.com

快速回复 返回顶部 返回列表