找回密码

查看: 836|回复: 0

[喜剧] 疯狂的偶遇 Going.Berserk.1983.1080p.BluRay.x264-GUACAMOLE 8.49GB

[复制链接]
蓝光币
2048
发表于 2020-12-17 09:03:35 | 显示全部楼层 |阅读模式


◎译  名 疯狂的偶遇
◎片  名 Going Berserk
◎年  代 1983
◎产  地 加拿大,美国
◎类  别 笑剧
◎语  言 英语
◎上映日期 1983-09-30
◎IMDb评分  5.3/10 from 1606 users
◎IMDb链接  https://www.imdb.com/title/tt0085603/
◎豆瓣评分 /10 from 0 users
◎豆瓣链接 https://movie.douban.com/subject/3081000/
◎片  长 84 分钟
◎导  演 David Steinberg / 大卫·斯坦伯格 David Steinberg
◎编  剧 达纳·奥尔森 Dana Olsen / David Steinberg / 大卫·斯坦伯格 David Steinberg
◎主  演 约翰·坎迪 John Candy
       乔·弗莱厄蒂 Joe Flaherty
       尤金·列维 Eugene Levy
       Eric Lee
       Alley Mills
       理查德·利伯蒂尼 Richard Libertini
       Ken Letner
       Helene Phillips
       玛丽安妮·穆勒雷尔 Marianne Muellerleile
       Bill H. Myers
       Natasha Ryan
       布伦达·柯林 Brenda Currin
       伊芙·布伦特 Eve Brent
       宾斯·莫洛克 Beans Morocco
       Elizabeth Kerr
       尤利乌斯?哈里斯 Julius Harris
       柯特伍德·史姑娘 Kurtwood Smith
       帕特·亨格尔 Pat Hingle
       杰夫·伊马达 Jeff Imada
       赵家玲 Rosalind Chao
       埃涅·赫德森 Ernie Hudson
       约翰·帕拉贡 John Paragon
       詹姆斯·卢 James Lew
       Lucinda Crosby
       迪克西·卡特 Dixie Carter
       Mark Bringleson
       Hillary Carlip
       保罗·杜利 Paul Dooley
       拉里·波恩义克斯特 Larry Poindexter
       埃莉诺·多纳约 Elinor Donahue
       Tino Insana
◎标  签 美国 | 笑剧 | 剧情
◎简  介


  暂无相关剧情先容
  1. Video
  2. ID                                       : 1
  3. Format                                   : AVC
  4. Format/Info                              : Advanced Video Codec
  5. Format profile                           : [email protected]
  6. Format settings                          : CABAC / 4 Ref Frames
  7. Format settings, CABAC                   : Yes
  8. Format settings, Reference frames        : 4 frames
  9. Codec ID                                 : V_MPEG4/ISO/AVC
  10. Duration                                 : 1 h 24 min
  11. Bit rate                                 : 14.0 Mb/s
  12. Width                                    : 1 918 pixels
  13. Height                                   : 1 040 pixels
  14. Display aspect ratio                     : 1.85:1
  15. Frame rate mode                          : Constant
  16. Frame rate                               : 23.976 (24000/1001/189150) FPS
  17. Color space                              : YUV
  18. Chroma subsampling                       : 4:2:0
  19. Bit depth                                : 8 bits
  20. Scan type                                : Progressive
  21. Bits/(Pixel*Frame)                       : 0.293
  22. Stream size                              : 8.28 GiB (98%)
  23. Writing library                          : x264 core 161 r3027 4121277
  24. Encoding settings                        : cabac=1 / ref=4 / deblock=1:-3:-3 / analyse=0x3:0x133 / me=umh / subme=9 / psy=1 / psy_rd=1.00:0.00 / mixed_ref=1 / me_range=16 / chroma_me=1 / trellis=2 / 8x8dct=1 / cqm=0 / deadzone=21,11 / fast_pskip=0 / chroma_qp_offset=-2 / threads=24 / lookahead_threads=2 / sliced_threads=0 / nr=0 / decimate=1 / interlaced=0 / bluray_compat=0 / constrained_intra=0 / bframes=3 / b_pyramid=2 / b_adapt=2 / b_bias=0 / direct=3 / weightb=1 / open_gop=0 / weightp=2 / keyint=250 / keyint_min=23 / scenecut=40 / intra_refresh=0 / rc_lookahead=60 / rc=crf / mbtree=1 / crf=21.0 / qcomp=0.60 / qpmin=0 / qpmax=69 / qpstep=4 / ip_ratio=1.40 / aq=3:0.60
  25. Default                                  : Yes
  26. Forced                                   : No
  27. Color range                              : Limited
  28. Color primaries                          : BT.709
  29. Transfer characteristics                 : BT.709
  30. Matrix coefficients                      : BT.709

  31. Audio
  32. ID                                       : 2
  33. Format                                   : FLAC
  34. Format/Info                              : Free Lossless Audio Codec
  35. Codec ID                                 : A_FLAC
  36. Duration                                 : 1 h 24 min
  37. Bit rate mode                            : Variable
  38. Bit rate                                 : 345 kb/s
  39. Channel(s)                               : 2 channels
  40. Channel layout                           : L R
  41. Sampling rate                            : 48.0 kHz
  42. Frame rate                               : 11.719 FPS (4096 SPF)
  43. Bit depth                                : 16 bits
  44. Compression mode                         : Lossless
  45. Stream size                              : 209 MiB (2%)
  46. Writing library                          : libFLAC 1.2.1 (UTC 2007-09-17)
  47. Language                                 : English
  48. Default                                  : Yes
  49. Forced                                   : No

  50. Menu
  51. 00:00:00.000                             : en:00:00:00.000
  52. 00:08:44.607                             : en:00:08:44.607
  53. 00:17:17.495                             : en:00:17:17.495
  54. 00:21:43.302                             : en:00:21:43.302
  55. 00:29:15.087                             : en:00:29:15.087
  56. 00:39:19.649                             : en:00:39:19.649
  57. 00:45:24.430                             : en:00:45:24.430
  58. 00:50:40.162                             : en:00:50:40.162
  59. 00:55:28.617                             : en:00:55:28.617
  60. 01:05:30.760                             : en:01:05:30.760
  61. 01:13:41.834                             : en:01:13:41.834
  62. 01:19:06.617                             : en:01:19:06.617
复制代码



                                       
                                       

                                       
                                       
                                       




回复

使用道具 举报

懒得打字嘛,点击右侧快捷回复 【右侧内容,后台自定义】
您需要登录后才可以回帖 登录 | 立即加入

本版积分规则

Archiver| |网站地图

Copyright © 2024 Comsenz Inc. Powered by 蓝光电影网

本站内容由用户自主分享和转载自互联网,转载目的在于传递更多信息,并不代表本网赞同其观点和对其真实性负责。

如有侵权、违反国家法律政策行为,请联系我们,我们会第一时间及时清除和处理!

举报反馈邮箱:4k1080.com@gmail.com

快速回复 返回顶部 返回列表