找回密码

查看: 1676|回复: 0

[剧情] 金属之声/静寂的鼓手 Sound.of.Metal.2019.1080p.BluRay.REMUX.AVC.DTS-HD.MA.5.1-FGT 20.26GB

[复制链接]
蓝光币
1840
发表于 2021-6-2 10:04:29 | 显示全部楼层 |阅读模式


◎译  名 金属之声/寂静的鼓手(台)
◎片  名 Sound of Metal
◎年  代 2019
◎产  地 比利时,美国
◎类  别 剧情 / 音乐
◎语  言 英语
◎上映日期 2019-09-06(多伦多电影节) / 2020-11-20(美国) / 2020-12-04(美国收集)
◎豆瓣评分 7.4/10 from 6122 users
◎豆瓣链接 https://movie.douban.com/subject/26716348/
◎片  长 120分钟
◎导  演 达里尔斯·马德尔 Darius Marder
◎编  剧 达里尔斯·马德尔 Darius Marder / 亚伯拉罕·马德尔 Abraham Marder / 德里克·斯安弗朗斯 Derek Cianfrance
◎主  演 里兹·阿迈德 Riz Ahmed
       奥利维亚·库克 Olivia Cooke
       保罗·瑞西 Paul Raci
       劳伦·利德洛夫 Lauren Ridloff
       马修·阿马立克 Mathieu Amalric
       克里斯·佩尔费蒂 Chris Perfetti
       迈克尔·陶 Michael Tow
       威廉·泽法尔茨 William Xifaras
       亚历克斯·基尔戈尔 Alex Kilgore
       杰米·加扎里安 Jamie Ghazarian
◎标  签 美国 | 音乐 | 剧情 | 里兹·阿迈德 | 2020 | 电影 | 2019 | 美国电影
◎简  介


  一个摇滚乐队的鼓手(里兹·阿迈德)忽然发现自己失聪,他的乐队同伴露(奥利维亚·库克)和他都很懊恼,但又不能不面临这残暴的现实。影片客岁在多伦多电影节首映,作为导演童贞作获得媒体好评。
◎获奖情况
  第78届金球奖 ?(2021)
  电影类剧情片最好男配角(提名) 里兹·阿迈德
  
  第74届英国电影学院奖 ?(2021)
  电影奖最好男配角(提名) 里兹·阿迈德
  电影奖最好男配角(提名) 保罗·瑞西
  电影奖最好剪辑
  电影奖最好音效
  
  第44届多伦多国际电影节 ?(2019)
  站台奖(提名) 达里尔斯·马德尔
  
  第73届美国导演工会奖 ?(2021)
  最好新人导演奖 达里尔斯·马德尔
  
  第27届美国演员工会奖 ?(2021)
  电影奖最好男配角(提名) 里兹·阿迈德
  
  第73届美国编剧工会奖 ?(2021)
  电影奖最好原创剧本(提名) 德里克·斯安弗朗斯?/?亚伯拉罕·马德尔?/?达里尔斯·马德尔
  
  第32届美国制片野生会奖 ?(2021)
  最好电影制片人奖(提名)
  
  第71届美国剪辑工会奖 ?(2021)
  剧情片最好剪辑(提名) 米克尔·E·G·尼尔森
  
  第68届美国音效剪辑协会奖 ?(2021)
  金卷轴奖最好电影音效剪辑(提名)
  金卷轴奖最好电影对白剪辑(提名)
  金卷轴奖最好配乐剪辑(提名)
  
  第57届美国声音结果协会奖 ?(2021)
  真人电影最好音效
  
  第92届美国国家批评协会奖 ?(2020)
  最好男配角 里兹·阿迈德
  最好男配角 保罗·瑞西
  年度佳片
  
  第26届美国批评家挑选电影奖 ?(2021)
  最好影片(提名)
  最好男配角(提名) 里兹·阿迈德
  最好男配角(提名) 保罗·瑞西
  最好原创剧本(提名) 亚伯拉罕·马德尔?/?达里尔斯·马德尔
  最好剪辑 米克尔·E·G·尼尔森
  
  第36届美国自力精神奖 ?(2021)
  最好童贞作
  最好男配角 里兹·阿迈德
  最好男配角 保罗·瑞西
  
  第30届哥谭自力电影奖 ?(2020)
  最好男演员 里兹·阿迈德
  
  第21届美国电影学会奖 ?(2020)
  年度佳片
  
  第25届金卫星奖 ?(2021)
  电影部分最好剧情片(提名)
  电影部分最好导演(提名) 达里尔斯·马德尔
  电影部分剧情片最好男配角(提名) 里兹·阿迈德
  电影部分最好音效(提名)
  
  第55届美国国家影评人协会奖 ?(2021)
  最好男配角(提名) 里兹·阿迈德
  最好男配角 保罗·瑞西
  
  第41届伦敦影评人协会奖 ?(2021)
  年度男配角(提名) 里兹·阿迈德
  年度英国/爱尔兰男演员(提名) 里兹·阿迈德
  技术成就奖(提名)
  
  第41届波士顿影评人协会奖 ?(2020)
  最好男配角(提名) 里兹·阿迈德
  最好男配角 保罗·瑞西
  
  第46届洛杉矶影评人协会奖 ?(2020)
  最好男配角(提名) 里兹·阿迈德
  最好男配角(提名) 保罗·瑞西
  
  第33届芝加哥影评人协会奖 ?(2020)
  最好男配角(提名) 里兹·阿迈德
  最好男配角 保罗·瑞西
  最具冲破导演(米洛斯·斯泰利克奖)(提名) 达里尔斯·马德尔
  
  第5届亚特兰大影评人协会奖 ?(2020)
  十佳影片
  最好男配角 里兹·阿迈德
  最好男配角 保罗·瑞西
  
  第24届美国在线影评人协会奖 ?(2021)
  最好影片(提名)
  最好男配角(提名) 里兹·阿迈德
  最好男配角(提名) 保罗·瑞西
  最好冲破导演(提名) 达里尔斯·马德尔
  1. Video
  2. ID                                       : 1
  3. ID in the original source medium         : 4113 (0x1011)
  4. Format                                   : AVC
  5. Format/Info                              : Advanced Video Codec
  6. Format profile                           : [email protected]
  7. Format settings                          : CABAC / 4 Ref Frames
  8. Format settings, CABAC                   : Yes
  9. Format settings, Reference frames        : 4 frames
  10. Codec ID                                 : V_MPEG4/ISO/AVC
  11. Duration                                 : 2 h 0 min
  12. Bit rate mode                            : Variable
  13. Bit rate                                 : 20.5 Mb/s
  14. Maximum bit rate                         : 38.0 Mb/s
  15. Width                                    : 1 920 pixels
  16. Height                                   : 1 080 pixels
  17. Display aspect ratio                     : 16:9
  18. Frame rate mode                          : Constant
  19. Frame rate                               : 23.976 (24000/1001/189150) FPS
  20. Color space                              : YUV
  21. Chroma subsampling                       : 4:2:0
  22. Bit depth                                : 8 bits
  23. Scan type                                : Progressive
  24. Bits/(Pixel*Frame)                       : 0.412
  25. Stream size                              : 17.3 GiB (85%)
  26. Language                                 : English
  27. Default                                  : No
  28. Forced                                   : No
  29. Original source medium                   : Blu-ray
  30. Audio #1
  31. ID                                       : 2
  32. ID in the original source medium         : 4352 (0x1100)
  33. Format                                   : DTS XLL
  34. Format/Info                              : Digital Theater Systems
  35. Commercial name                          : DTS-HD Master Audio
  36. Codec ID                                 : A_DTS
  37. Duration                                 : 2 h 0 min
  38. Bit rate mode                            : Variable
  39. Bit rate                                 : 1 929 kb/s
  40. Channel(s)                               : 6 channels
  41. Channel layout                           : C L R Ls Rs LFE
  42. Sampling rate                            : 48.0 kHz
  43. Frame rate                               : 93.750 FPS (512 SPF)
  44. Bit depth                                : 16 bits
  45. Compression mode                         : Lossless
  46. Stream size                              : 1.63 GiB (8%)
  47. Title                                    : DTS-HD MA 5.1
  48. Language                                 : English
  49. Default                                  : Yes
  50. Forced                                   : No
  51. Original source medium                   : Blu-ray
  52. Audio #2
  53. ID                                       : 3
  54. ID in the original source medium         : 4353 (0x1101)
  55. Format                                   : DTS XLL
  56. Format/Info                              : Digital Theater Systems
  57. Commercial name                          : DTS-HD Master Audio
  58. Codec ID                                 : A_DTS
  59. Duration                                 : 2 h 0 min
  60. Bit rate mode                            : Variable
  61. Bit rate                                 : 1 596 kb/s
  62. Channel(s)                               : 2 channels
  63. Channel layout                           : L R
  64. Sampling rate                            : 48.0 kHz
  65. Frame rate                               : 93.750 FPS (512 SPF)
  66. Bit depth                                : 16 bits
  67. Compression mode                         : Lossless
  68. Stream size                              : 1.34 GiB (7%)
  69. Title                                    : DTS-HD MA 2.0
  70. Language                                 : English
  71. Default                                  : No
  72. Forced                                   : No
  73. Original source medium                   : Blu-ray
  74. Text #1
  75. ID                                       : 4
  76. Format                                   : UTF-8
  77. Codec ID                                 : S_TEXT/UTF8
  78. Codec ID/Info                            : UTF-8 Plain Text
  79. Duration                                 : 1 h 58 min
  80. Bit rate                                 : 30 b/s
  81. Count of elements                        : 1030
  82. Stream size                              : 26.9 KiB (0%)
  83. Title                                    : English-SRT
  84. Language                                 : English
  85. Default                                  : Yes
  86. Forced                                   : No
  87. Text #2
  88. ID                                       : 5
  89. ID in the original source medium         : 4608 (0x1200)
  90. Format                                   : PGS
  91. Muxing mode                              : zlib
  92. Codec ID                                 : S_HDMV/PGS
  93. Codec ID/Info                            : Picture based subtitle format used on BDs/HD-DVDs
  94. Duration                                 : 1 h 59 min
  95. Bit rate                                 : 20.4 kb/s
  96. Count of elements                        : 2061
  97. Stream size                              : 17.5 MiB (0%)
  98. Title                                    : English-PGS
  99. Language                                 : English
  100. Default                                  : No
  101. Forced                                   : No
  102. Original source medium                   : Blu-ray
  103. Text #3
  104. ID                                       : 6
  105. ID in the original source medium         : 4609 (0x1201)
  106. Format                                   : PGS
  107. Muxing mode                              : zlib
  108. Codec ID                                 : S_HDMV/PGS
  109. Codec ID/Info                            : Picture based subtitle format used on BDs/HD-DVDs
  110. Duration                                 : 1 h 59 min
  111. Bit rate                                 : 15.6 kb/s
  112. Count of elements                        : 2024
  113. Stream size                              : 13.2 MiB (0%)
  114. Title                                    : Chinese-PGS
  115. Language                                 : Chinese
  116. Default                                  : No
  117. Forced                                   : No
  118. Original source medium                   : Blu-ray
  119. Text #4
  120. ID                                       : 7
  121. ID in the original source medium         : 4610 (0x1202)
  122. Format                                   : PGS
  123. Muxing mode                              : zlib
  124. Codec ID                                 : S_HDMV/PGS
  125. Codec ID/Info                            : Picture based subtitle format used on BDs/HD-DVDs
  126. Duration                                 : 1 h 59 min
  127. Bit rate                                 : 17.6 kb/s
  128. Count of elements                        : 2024
  129. Stream size                              : 14.9 MiB (0%)
  130. Title                                    : Chinese-PGS
  131. Language                                 : Chinese
  132. Default                                  : No
  133. Forced                                   : No
  134. Original source medium                   : Blu-ray
  135. Text #5
  136. ID                                       : 8
  137. ID in the original source medium         : 4611 (0x1203)
  138. Format                                   : PGS
  139. Muxing mode                              : zlib
  140. Codec ID                                 : S_HDMV/PGS
  141. Codec ID/Info                            : Picture based subtitle format used on BDs/HD-DVDs
  142. Duration                                 : 1 h 59 min
  143. Bit rate                                 : 17.6 kb/s
  144. Count of elements                        : 1708
  145. Stream size                              : 15.0 MiB (0%)
  146. Title                                    : Korean-PGS
  147. Language                                 : Korean
  148. Default                                  : No
  149. Forced                                   : No
  150. Original source medium                   : Blu-ray
  151. Text #6
  152. ID                                       : 9
  153. ID in the original source medium         : 4612 (0x1204)
  154. Format                                   : PGS
  155. Muxing mode                              : zlib
  156. Codec ID                                 : S_HDMV/PGS
  157. Codec ID/Info                            : Picture based subtitle format used on BDs/HD-DVDs
  158. Duration                                 : 1 h 59 min
  159. Bit rate                                 : 18.5 kb/s
  160. Count of elements                        : 2024
  161. Stream size                              : 15.8 MiB (0%)
  162. Title                                    : Thai-PGS
  163. Language                                 : Thai
  164. Default                                  : No
  165. Forced                                   : No
  166. Original source medium                   : Blu-ray
  167. Menu
  168. 00:00:00.000                             : Chapter 01
  169. 00:04:04.244                             : Chapter 02
  170. 00:11:04.997                             : Chapter 03
  171. 00:18:07.753                             : Chapter 04
  172. 00:24:05.485                             : Chapter 05
  173. 00:29:04.033                             : Chapter 06
  174. 00:35:23.955                             : Chapter 07
  175. 00:41:59.975                             : Chapter 08
  176. 00:48:23.317                             : Chapter 09
  177. 00:53:48.725                             : Chapter 10
  178. 00:59:33.778                             : Chapter 11
  179. 01:05:03.816                             : Chapter 12
  180. 01:11:43.007                             : Chapter 13
  181. 01:17:19.426                             : Chapter 14
  182. 01:21:36.641                             : Chapter 15
  183. 01:30:56.909                             : Chapter 16
  184. 01:40:37.698                             : Chapter 17
  185. 01:52:34.456                             : Chapter 18
复制代码




                                       
                                       

                                       
                                       
                                       




回复

使用道具 举报

懒得打字嘛,点击右侧快捷回复 【右侧内容,后台自定义】
您需要登录后才可以回帖 登录 | 立即加入

本版积分规则

Copyright © 2024 Comsenz Inc. Powered by 蓝光电影网

本站内容由用户自主分享和转载自互联网,转载目的在于传递更多信息,并不代表本网赞同其观点和对其真实性负责。

如有侵权、违反国家法律政策行为,请联系我们,我们会第一时间及时清除和处理!

举报反馈邮箱:4k1080.com@gmail.com

快速回复 返回顶部 返回列表