找回密码

蓝光电影网

查看: 287|回复: 1

[8bit.SDR] 工具箱杀手 The.Toolbox.Murders.1978.2160p.BluRay.x264.8bit.SDR.DTS-HD.MA.TrueHD.7.1.Atmos-SWTYBLZ 60.89GB

[复制链接]
蓝光币
815
发表于 2022-1-22 19:03:29 | 显示全部楼层 |阅读模式


◎译  名 工具箱杀手
◎片  名 The Toolbox Murders
◎年  代 1978
◎产  地 美国
◎类  别 惊悚 / 可骇
◎语  言 英语
◎上映日期 1978-03-03(美国)
◎IMDb链接 https://www.imdb.com/title/tt0078405/
◎豆瓣评分 5.3/10 (91人评价)
◎豆瓣链接 https://movie.douban.com/subject/2174074/
◎片  长 93 分钟
◎导  演 丹尼斯·唐纳利 Dennis Donnelly (id:1050618)
◎编  剧 安·金德伯格 Ann Kindberg (id:1276516)
       Robert Easter Robert Easter (id:1002578)
◎演  员 卡梅隆·米切尔 Cameron Mitchell (id:1041239)
       帕梅琳·费丁 Pamelyn Ferdin (id:1085611)
       Wesley Eure Wesley Eure (id:1023011)
       Robert Leh Robert Leh (id:1106338)
       James Nolan James Nolan (id:1133664)
       凯思琳·奥马利 Kathleen O'Malley (id:1136445)
       凯丽·尼科尔斯 Kelly Nichols (id:1137388)
       Evelyn Guerrero Evelyn Guerrero (id:1098196)
       约翰·霍克 John Hawker (id:1097056)
       唐·戴蒙德 Don Diamond (id:1087950)
       Tim Donnelly Tim Donnelly (id:1084175)
       Robert Forward Robert Forward (id:1080414)
       安妮塔·可桑 Aneta Corsaut (id:1068127)
       Nicolas Beauvy Nicolas Beauvy (id:1064060)
       丹尼斯·唐纳利 Dennis Donnelly (id:1050618)
       盖瑞·格雷弗 Gary Graver (id:1009246)
       Edward Ternes Edward Ternes (id:1155370)
       安·金德伯格 Ann Kindberg (id:1276516)
◎简  介

  托比·霍珀指导、安吉拉·贝蒂斯主演的美国可骇电影。                                    
                                电影报告了在好莱坞的一家老旧饭馆“鲁斯曼·阿姆斯公寓”中发生的灵异事务,在屋主预备装修饭馆时发生了人们只能进却没法出饭馆的工作。
  1. Video
  2. ID                                       : 1
  3. Format                                   : AVC
  4. Format/Info                              : Advanced Video Codec
  5. Format profile                           : [email protected]
  6. Format settings                          : CABAC / 5 Ref Frames
  7. Format settings, CABAC                   : Yes
  8. Format settings, Reference frames        : 5 frames
  9. Codec ID                                 : V_MPEG4/ISO/AVC
  10. Duration                                 : 1 h 33 min
  11. Bit rate                                 : 84.8 Mb/s
  12. Width                                    : 3 586 pixels
  13. Height                                   : 2 160 pixels
  14. Display aspect ratio                     : 5:3
  15. Frame rate mode                          : Constant
  16. Frame rate                               : 23.976 (24000/1001/189150) FPS
  17. Color space                              : YUV
  18. Chroma subsampling                       : 4:2:0
  19. Bit depth                                : 8 bits
  20. Scan type                                : Progressive
  21. Bits/(Pixel*Frame)                       : 0.457
  22. Stream size                              : 55.6 GiB (92%)
  23. Writing library                          : x264 core 157 r2935 545de2f
  24. Encoding settings                        : cabac=1 / ref=5 / deblock=1:-1:-1 / analyse=0x3:0x113 / me=umh / subme=10 / psy=1 / psy_rd=1.00:0.15 / mixed_ref=1 / me_range=48 / chroma_me=1 / trellis=2 / 8x8dct=1 / cqm=0 / deadzone=21,11 / fast_pskip=1 / chroma_qp_offset=-3 / threads=48 / lookahead_threads=4 / sliced_threads=0 / nr=0 / decimate=0 / interlaced=0 / bluray_compat=0 / constrained_intra=0 / bframes=3 / b_pyramid=2 / b_adapt=2 / b_bias=0 / direct=3 / weightb=1 / open_gop=0 / weightp=2 / keyint=250 / keyint_min=23 / scenecut=40 / intra_refresh=0 / rc_lookahead=50 / rc=crf / mbtree=1 / crf=23.0 / qcomp=0.60 / qpmin=0 / qpmax=69 / qpstep=4 / ip_ratio=1.40 / aq=1:1.00
  25. Default                                  : Yes
  26. Forced                                   : No

  27. Audio #1
  28. ID                                       : 2
  29. ID in the original source medium         : 4352 (0x1100)
  30. Format                                   : MLP FBA 16-ch
  31. Format/Info                              : Meridian Lossless Packing FBA with 16-channel presentation
  32. Commercial name                          : Dolby TrueHD with Dolby Atmos
  33. Codec ID                                 : A_TRUEHD
  34. Duration                                 : 1 h 33 min
  35. Bit rate mode                            : Variable
  36. Bit rate                                 : 3 563 kb/s
  37. Maximum bit rate                         : 5 163 kb/s
  38. Channel(s)                               : 8 channels
  39. Channel layout                           : L R C LFE Ls Rs Lb Rb
  40. Sampling rate                            : 48.0 kHz
  41. Frame rate                               : 1 200.000 FPS (40 SPF)
  42. Bit depth                                : 24 bits
  43. Compression mode                         : Lossless
  44. Stream size                              : 2.34 GiB (4%)
  45. Title                                    : TrueHD 7.1 Atmos
  46. Language                                 : English
  47. Default                                  : Yes
  48. Forced                                   : No
  49. Original source medium                   : Blu-ray
  50. Number of dynamic objects                : 11
  51. Bed channel count                        : 1 channel
  52. Bed channel configuration                : LFE

  53. Audio #2
  54. ID                                       : 3
  55. Format                                   : DTS XLL
  56. Format/Info                              : Digital Theater Systems
  57. Commercial name                          : DTS-HD Master Audio
  58. Codec ID                                 : A_DTS
  59. Duration                                 : 1 h 33 min
  60. Bit rate mode                            : Variable
  61. Bit rate                                 : 3 413 kb/s
  62. Channel(s)                               : 8 channels
  63. Channel layout                           : C L R LFE Lb Rb Lss Rss
  64. Sampling rate                            : 48.0 kHz
  65. Frame rate                               : 93.750 FPS (512 SPF)
  66. Bit depth                                : 24 bits
  67. Compression mode                         : Lossless
  68. Stream size                              : 2.24 GiB (4%)
  69. Title                                    : DTS-HD MA 7.1
  70. Language                                 : English
  71. Default                                  : No
  72. Forced                                   : No

  73. Audio #3
  74. ID                                       : 4
  75. ID in the original source medium         : 4352 (0x1100)
  76. Format                                   : AC-3
  77. Format/Info                              : Audio Coding 3
  78. Commercial name                          : Dolby Digital
  79. Format settings                          : Dolby Surround EX
  80. Codec ID                                 : A_AC3
  81. Duration                                 : 1 h 33 min
  82. Bit rate mode                            : Constant
  83. Bit rate                                 : 640 kb/s
  84. Channel(s)                               : 6 channels
  85. Channel layout                           : L R C LFE Ls Rs
  86. Sampling rate                            : 48.0 kHz
  87. Frame rate                               : 31.250 FPS (1536 SPF)
  88. Compression mode                         : Lossy
  89. Stream size                              : 430 MiB (1%)
  90. Title                                    : DD 5.1
  91. Language                                 : English
  92. Service kind                             : Complete Main
  93. Default                                  : No
  94. Forced                                   : No
  95. Original source medium                   : Blu-ray

  96. Text #1
  97. ID                                       : 5
  98. Format                                   : UTF-8
  99. Codec ID                                 : S_TEXT/UTF8
  100. Codec ID/Info                            : UTF-8 Plain Text
  101. Duration                                 : 1 h 28 min
  102. Bit rate                                 : 45 b/s
  103. Count of elements                        : 838
  104. Stream size                              : 29.3 KiB (0%)
  105. Language                                 : English
  106. Default                                  : Yes
  107. Forced                                   : No

  108. Text #2
  109. ID                                       : 6
  110. Format                                   : UTF-8
  111. Codec ID                                 : S_TEXT/UTF8
  112. Codec ID/Info                            : UTF-8 Plain Text
  113. Duration                                 : 1 h 28 min
  114. Bit rate                                 : 51 b/s
  115. Count of elements                        : 970
  116. Stream size                              : 33.2 KiB (0%)
  117. Title                                    : SDH
  118. Language                                 : English
  119. Default                                  : No
  120. Forced                                   : No

  121. Text #3
  122. ID                                       : 7
  123. ID in the original source medium         : 4768 (0x12A0)
  124. Format                                   : PGS
  125. Muxing mode                              : zlib
  126. Codec ID                                 : S_HDMV/PGS
  127. Codec ID/Info                            : Picture based subtitle format used on BDs/HD-DVDs
  128. Duration                                 : 1 h 28 min
  129. Bit rate                                 : 33.5 kb/s
  130. Count of elements                        : 1968
  131. Stream size                              : 21.3 MiB (0%)
  132. Language                                 : English
  133. Default                                  : No
  134. Forced                                   : No
  135. Original source medium                   : Blu-ray

  136. Text #4
  137. ID                                       : 8
  138. ID in the original source medium         : 4769 (0x12A1)
  139. Format                                   : PGS
  140. Muxing mode                              : zlib
  141. Codec ID                                 : S_HDMV/PGS
  142. Codec ID/Info                            : Picture based subtitle format used on BDs/HD-DVDs
  143. Duration                                 : 1 h 30 min
  144. Bit rate                                 : 24.0 kb/s
  145. Count of elements                        : 1554
  146. Stream size                              : 15.6 MiB (0%)
  147. Language                                 : French
  148. Default                                  : No
  149. Forced                                   : No
  150. Original source medium                   : Blu-ray

  151. Text #5
  152. ID                                       : 9
  153. ID in the original source medium         : 4770 (0x12A2)
  154. Format                                   : PGS
  155. Muxing mode                              : zlib
  156. Codec ID                                 : S_HDMV/PGS
  157. Codec ID/Info                            : Picture based subtitle format used on BDs/HD-DVDs
  158. Duration                                 : 1 h 30 min
  159. Bit rate                                 : 25.9 kb/s
  160. Count of elements                        : 1548
  161. Stream size                              : 16.8 MiB (0%)
  162. Language                                 : Spanish
  163. Default                                  : No
  164. Forced                                   : No
  165. Original source medium                   : Blu-ray

  166. Menu
  167. 00:00:00.000                             : en:Chapter 01
  168. 00:04:22.720                             : en:Chapter 02
  169. 00:08:35.473                             : en:Chapter 03
  170. 00:12:18.279                             : en:Chapter 04
  171. 00:15:59.166                             : en:Chapter 05
  172. 00:21:36.545                             : en:Chapter 06
  173. 00:28:15.568                             : en:Chapter 07
  174. 00:33:18.830                             : en:Chapter 08
  175. 00:36:52.376                             : en:Chapter 09
  176. 00:45:54.376                             : en:Chapter 10
  177. 00:50:05.419                             : en:Chapter 11
  178. 01:00:55.151                             : en:Chapter 12
  179. 01:04:15.393                             : en:Chapter 13
  180. 01:07:37.178                             : en:Chapter 14
  181. 01:11:49.847                             : en:Chapter 15
  182. 01:17:22.554                             : en:Chapter 16
  183. 01:24:38.823                             : en:Chapter 17
  184. 01:28:00.400                             : en:Chapter 18
  185. 01:30:44.063                             : en:Chapter 19
复制代码




                                       
                                       

                                       
                                       
                                       





回复

使用道具 举报

蓝光币
1
发表于 2022-1-22 19:42:47 | 显示全部楼层
感谢楼主分享
回复 支持 反对

使用道具 举报

懒得打字嘛,点击右侧快捷回复 【右侧内容,后台自定义】
您需要登录后才可以回帖 登录 | 立即加入

本版积分规则

Archiver|小黑屋| 蓝光电影网 |网站地图

Copyright © 2021 Comsenz Inc. Powered by 蓝光电影网

蓝光电影网

本站内容由用户自主分享和转载自互联网,转载目的在于传递更多信息,并不代表本网赞同其观点和对其真实性负责。

如有侵权、违反国家法律政策行为,请联系我们,我们会第一时间及时清除和处理!

举报反馈邮箱:[email protected]

快速回复 返回顶部 返回列表