找回密码

蓝光电影网

查看: 106|回复: 0

[剧情] 寻找顾巴先生 Looking.for.Mr.Goodbar.1977.1080p.HULU.WEBRip.AAC2.0.x264-PLiSSKEN 5.52GB

[复制链接]
蓝光币
815
发表于 2022-1-22 19:26:31 | 显示全部楼层 |阅读模式


◎译  名 寻觅顾巴师长 / 欲海花 / 寻人记
◎片  名 Looking for Mr. Goodbar
◎年  代 1977
◎产  地 美国
◎类  别 剧情
◎语  言 英语
◎上映日期 1977-10-19
◎IMDb链接 https://www.imdb.com/title/tt0076327/
◎豆瓣评分 7.3/10 (95人评价)
◎豆瓣链接 https://movie.douban.com/subject/1292608/
◎片  长 135 分钟
◎导  演 理查德·布鲁克斯 Richard Brooks (id:1070989)
◎演  员 黛安·基顿 Diane Keaton (id:1053568)
       塔斯黛·韦尔德 Tuesday Weld (id:1049681)
       威廉·阿瑟东 William Atherton (id:1022729)
       理查·基尔 Richard Gere (id:1040997)
       Artie Kane Artie Kane (id:1288077)
       朱迪斯·A·科里 Judith A. Cory (id:1281330)
       苏珊·杰曼 Susan Germaine (id:1284736)
◎简  介

  Theresa is a successful teacher of deaf children during the day but after a short unhappy affair starts to spend her nights cruising bars. Her craving first for sex but later also for drugs leads into increasingly demeaning and dangerous situations at odds with her daytime commitment to her children.
◎获奖情况 (共2项)
  第50届奥斯卡金像奖 (1978)
  最好女配角(提名)
   └──塔斯黛·韦尔德 (id:1049681)
  最好摄影(提名)
   └──威廉·弗兰克 (id:1027982)
  1. Video
  2. ID                                       : 1
  3. Format                                   : AVC
  4. Format/Info                              : Advanced Video Codec
  5. Format profile                           : [email protected]
  6. Format settings                          : CABAC / 4 Ref Frames
  7. Format settings, CABAC                   : Yes
  8. Format settings, Reference frames        : 4 frames
  9. Codec ID                                 : V_MPEG4/ISO/AVC
  10. Duration                                 : 2 h 20 min
  11. Bit rate                                 : 5 579 kb/s
  12. Width                                    : 1 920 pixels
  13. Height                                   : 1 080 pixels
  14. Display aspect ratio                     : 16:9
  15. Frame rate mode                          : Constant
  16. Frame rate                               : 59.940 (60000/1001/189150) FPS
  17. Color space                              : YUV
  18. Chroma subsampling                       : 4:2:0
  19. Bit depth                                : 8 bits
  20. Scan type                                : Progressive
  21. Bits/(Pixel*Frame)                       : 0.045
  22. Stream size                              : 5.46 GiB (99%)
  23. Default                                  : Yes
  24. Forced                                   : No
  25. Audio
  26. ID                                       : 2
  27. Format                                   : AAC LC SBR
  28. Format/Info                              : Advanced Audio Codec Low Complexity with Spectral Band Replication
  29. Commercial name                          : HE-AAC
  30. Format settings                          : Explicit
  31. Codec ID                                 : A_AAC-2
  32. Duration                                 : 2 h 20 min
  33. Bit rate                                 : 64.0 kb/s
  34. Channel(s)                               : 2 channels
  35. Channel layout                           : L R
  36. Sampling rate                            : 48.0 kHz
  37. Frame rate                               : 23.438 FPS (2048 SPF)
  38. Compression mode                         : Lossy
  39. Stream size                              : 64.1 MiB (1%)
  40. Language                                 : English
  41. Default                                  : Yes
  42. Forced                                   : No
  43. Text
  44. ID                                       : 3
  45. Format                                   : UTF-8
  46. Codec ID                                 : S_TEXT/UTF8
  47. Codec ID/Info                            : UTF-8 Plain Text
  48. Duration                                 : 2 h 19 min
  49. Bit rate                                 : 57 b/s
  50. Count of elements                        : 2581
  51. Stream size                              : 58.5 KiB (0%)
  52. Title                                    : SDH
  53. Language                                 : English
  54. Default                                  : No
  55. Forced                                   : No
复制代码







                                       
                                       

                                       
                                       
                                       




回复

使用道具 举报

懒得打字嘛,点击右侧快捷回复 【右侧内容,后台自定义】
您需要登录后才可以回帖 登录 | 立即加入

本版积分规则

Archiver|小黑屋| 蓝光电影网 |网站地图

Copyright © 2021 Comsenz Inc. Powered by 蓝光电影网

蓝光电影网

本站内容由用户自主分享和转载自互联网,转载目的在于传递更多信息,并不代表本网赞同其观点和对其真实性负责。

如有侵权、违反国家法律政策行为,请联系我们,我们会第一时间及时清除和处理!

举报反馈邮箱:[email protected]

快速回复 返回顶部 返回列表