找回密码

蓝光电影网

查看: 265|回复: 2

[剧情] 路易斯·韦恩的激情人生 The.Electrical.Life.of.Louis.Wain.2021.1080p.BluRay.x264.DTS-HD.MA.5.1-FGT 11.73GB

[复制链接]
蓝光币
815
发表于 2022-1-23 08:27:44 | 显示全部楼层 |阅读模式


◎译  名 路易斯·韦恩的豪情人生 / 天赋猫奴画家(台) / 路易斯韦恩的迷幻猫天下(港) / 路易斯·韦恩 / 路易斯·韦恩的电气生活 / Louis Wain / The Nine Lives Of Louis Wain
◎片  名 The Electrical Life of Louis Wain
◎年  代 2021
◎产  地 英国
◎类  别 剧情 / 列传 / 历史
◎语  言 英语
◎上映日期 2021-09-02(特柳赖德电影节) / 2021-10-22(美国) / 2021-11-05(美国收集)
◎IMDb链接 https://www.imdb.com/title/tt10687506/
◎豆瓣评分 7.6/10 (3599人评价)
◎豆瓣链接 https://movie.douban.com/subject/34663377/
◎片  长 111分钟
◎导  演 福田知盛 Will Sharpe (id:1317339)
◎编  剧 西蒙·斯蒂芬森 Simon Stephenson (id:1458701)
       福田知盛 Will Sharpe (id:1317339)
◎演  员 本尼迪克特·康伯巴奇 Benedict Cumberbatch (id:1009405)
       克莱尔·芙伊 Claire Foy (id:1274511)
       安德丽娅·赖斯伯勒 Andrea Riseborough (id:1040815)
       托比·琼斯 Toby Jones (id:1107884)
       奥利维娅·科尔曼 Olivia Colman (id:1004900)
       莎朗·鲁妮 Sharon Rooney (id:1331294)
       海莉·斯奎尔斯 Hayley Squires (id:1357690)
       斯塔西·马汀 Stacy Martin (id:1334729)
       艾米·卢·伍德 Aimee Lou Wood (id:1408157)
       菲比·尼克尔斯 Phoebe Nicholls (id:1328486)
       阿迪勒·阿赫塔尔 Adeel Akhtar (id:1352050)
       阿西姆·乔杜里 Asim Chaudhry (id:1407787)
       朱利安·巴拉特 Julian Barratt (id:1045126)
       理查德·艾欧阿德 Richard Ayoade (id:1274320)
       塔伊加·维迪提 Taika Waititi (id:1076354)
       尼克·凯夫 Nick Cave (id:1049985)
       詹米·德米特鲁 Jamie Demetriou (id:1373219)
       希沃恩·麦克斯维尼 Siobhan McSweeney (id:1388810)
       詹姆斯·伊莱斯 James Eeles (id:1376659)
       多萝西·阿特金森 Dorothy Atkinson (id:1342774)
       克里斯塔·克拉克 Crystal Clarke (id:1341238)
       索菲娅·迪·马蒂诺 Sophia Di Martino (id:1202935)
       安雅·麦肯纳-布鲁斯 Anya McKenna-Bruce (id:1415424)
       印迪卡·沃森 Indica Watson (id:1396498)
       马汀·麦格 Martyn Mayger (id:1368245)
       卡罗尔·斯蒂尔 Karol Steele (id:1228170)
       琪琪·梅 Kiki May (id:1462036)
       奥利维尔·里希特斯 Olivier Richters (id:1421821)
       丹尼尔·里格比 Daniel Rigby (id:1314877)
       斯图尔特·斯卡德莫尔 Stewart Scudamore (id:1313127)
       玛吉·巴基尔 Maggie Bakir (id:1454332)
       Oliver Crocker Oliver Crocker (id:1007625)
       本尼迪克特·康伯巴奇 Benedict Cumberbatch (id:1009405)
       西蒙·斯蒂芬森 Simon Stephenson (id:1458701)
       阿瑟·夏普 Arthur Sharpe (id:1463872)
       迈克尔·奥康纳 Michael O'Connor (id:1135533)
◎简  介

  本尼迪克特·康伯巴奇和克莱尔·芙伊将主演新片《路易斯·韦恩》,聚焦英国插图画家路易斯·韦恩,8月10日开拍,福田知盛(《那些花儿》)执导。                                    
                                韦恩以画猫而著名,曾担任英国猫协主席,他为快要一百多本儿童书籍画过插画,其画经常夸张地模仿人类的行为,嘲讽时代风潮。他晚年能够得了精神割裂症,某些心理学家以为可以从其作品看出眉目,不外也有一些专家对这一说法提出了异议。
  1. Video
  2. ID                                       : 1
  3. Format                                   : AVC
  4. Format/Info                              : Advanced Video Codec
  5. Format profile                           : [email protected]
  6. Format settings                          : CABAC / 4 Ref Frames
  7. Format settings, CABAC                   : Yes
  8. Format settings, Reference frames        : 4 frames
  9. Codec ID                                 : V_MPEG4/ISO/AVC
  10. Duration                                 : 1 h 51 min
  11. Bit rate                                 : 11.5 Mb/s
  12. Width                                    : 1 440 pixels
  13. Height                                   : 1 080 pixels
  14. Display aspect ratio                     : 4:3
  15. Frame rate mode                          : Constant
  16. Frame rate                               : 24.000 FPS
  17. Color space                              : YUV
  18. Chroma subsampling                       : 4:2:0
  19. Bit depth                                : 8 bits
  20. Scan type                                : Progressive
  21. Bits/(Pixel*Frame)                       : 0.308
  22. Stream size                              : 8.91 GiB (76%)
  23. Writing library                          : x264 core 148 r2748 97eaef2
  24. Encoding settings                        : cabac=1 / ref=4 / deblock=1:-2:-2 / analyse=0x3:0x113 / me=umh / subme=9 / psy=1 / psy_rd=1.00:0.15 / mixed_ref=1 / me_range=16 / chroma_me=1 / trellis=2 / 8x8dct=1 / cqm=0 / deadzone=21,11 / fast_pskip=1 / chroma_qp_offset=-3 / threads=72 / lookahead_threads=3 / sliced_threads=0 / nr=0 / decimate=1 / interlaced=0 / bluray_compat=0 / constrained_intra=0 / bframes=3 / b_pyramid=2 / b_adapt=1 / b_bias=0 / direct=3 / weightb=1 / open_gop=0 / weightp=2 / keyint=250 / keyint_min=25 / scenecut=40 / intra_refresh=0 / rc_lookahead=50 / rc=2pass / mbtree=1 / bitrate=11500 / ratetol=1.0 / qcomp=0.60 / qpmin=0 / qpmax=69 / qpstep=4 / cplxblur=20.0 / qblur=0.5 / vbv_maxrate=31250 / vbv_bufsize=31250 / nal_hrd=none / filler=0 / ip_ratio=1.40 / aq=1:1.00
  25. Language                                 : English
  26. Default                                  : Yes
  27. Forced                                   : No
  28. Audio
  29. ID                                       : 2
  30. ID in the original source medium         : 4353 (0x1101)
  31. Format                                   : DTS XLL
  32. Format/Info                              : Digital Theater Systems
  33. Commercial name                          : DTS-HD Master Audio
  34. Codec ID                                 : A_DTS
  35. Duration                                 : 1 h 51 min
  36. Bit rate mode                            : Variable
  37. Bit rate                                 : 3 626 kb/s
  38. Channel(s)                               : 6 channels
  39. Channel layout                           : C L R Ls Rs LFE
  40. Sampling rate                            : 48.0 kHz
  41. Frame rate                               : 93.750 FPS (512 SPF)
  42. Bit depth                                : 24 bits
  43. Compression mode                         : Lossless
  44. Stream size                              : 2.82 GiB (24%)
  45. Title                                    : DTS-HD MA 5.1
  46. Language                                 : English
  47. Default                                  : Yes
  48. Forced                                   : No
  49. Original source medium                   : Blu-ray
  50. Text #1
  51. ID                                       : 3
  52. Format                                   : UTF-8
  53. Codec ID                                 : S_TEXT/UTF8
  54. Codec ID/Info                            : UTF-8 Plain Text
  55. Duration                                 : 1 h 43 min
  56. Bit rate                                 : 63 b/s
  57. Count of elements                        : 1454
  58. Stream size                              : 48.2 KiB (0%)
  59. Language                                 : English
  60. Default                                  : Yes
  61. Forced                                   : No
  62. Text #2
  63. ID                                       : 4
  64. Format                                   : UTF-8
  65. Codec ID                                 : S_TEXT/UTF8
  66. Codec ID/Info                            : UTF-8 Plain Text
  67. Duration                                 : 1 h 43 min
  68. Bit rate                                 : 68 b/s
  69. Count of elements                        : 1544
  70. Stream size                              : 51.4 KiB (0%)
  71. Title                                    : SDH
  72. Language                                 : English
  73. Default                                  : No
  74. Forced                                   : No
  75. Menu
  76. 00:00:00.000                             : en:Chapter 01
  77. 00:00:57.791                             : en:Chapter 02
  78. 00:15:53.708                             : en:Chapter 03
  79. 00:26:50.500                             : en:Chapter 04
  80. 00:38:09.666                             : en:Chapter 05
  81. 00:46:18.958                             : en:Chapter 06
  82. 00:59:34.250                             : en:Chapter 07
  83. 01:08:02.250                             : en:Chapter 08
  84. 01:13:58.750                             : en:Chapter 09
  85. 01:19:25.625                             : en:Chapter 10
  86. 01:27:02.041                             : en:Chapter 11
  87. 01:33:59.166                             : en:Chapter 12
  88. 01:44:37.875                             : en:Chapter 13
复制代码







                                       
                                       

                                       
                                       
                                       




回复

使用道具 举报

蓝光币
273
发表于 2022-1-23 22:29:48 | 显示全部楼层

楼主太厉害了!楼主,电影应该很好看我觉得蓝光电影网真是个好地方!
回复 支持 反对

使用道具 举报

蓝光币
0
发表于 2022-1-24 00:17:41 | 显示全部楼层
Thanks for sharing
回复 支持 反对

使用道具 举报

懒得打字嘛,点击右侧快捷回复 【右侧内容,后台自定义】
您需要登录后才可以回帖 登录 | 立即加入

本版积分规则

Archiver|小黑屋| 蓝光电影网 |网站地图

Copyright © 2021 Comsenz Inc. Powered by 蓝光电影网

蓝光电影网

本站内容由用户自主分享和转载自互联网,转载目的在于传递更多信息,并不代表本网赞同其观点和对其真实性负责。

如有侵权、违反国家法律政策行为,请联系我们,我们会第一时间及时清除和处理!

举报反馈邮箱:[email protected]

快速回复 返回顶部 返回列表