找回密码

蓝光电影网

查看: 140|回复: 0

[剧情] 记忆 Memoria.2021.1080p.WEBRip.x264-RARBG 2.59GB

[复制链接]
蓝光币
815
发表于 2022-1-23 08:44:35 | 显示全部楼层 |阅读模式


◎译  名 记忆
◎片  名 Memoria
◎年  代 2021
◎产  地 哥伦比亚 / 泰国 / 法国 / 德国 / 墨西哥 / 卡塔尔 / 英国 / 中国大陆 / 瑞士
◎类  别 剧情
◎语  言 英语 / 西班牙语
◎上映日期 2022-02(中国大陆) / 2021-07-15(戛纳电影节) / 2021-09-30(哥伦比亚)
◎IMDb链接 https://www.imdb.com/title/tt8399288/
◎豆瓣评分 7.8/10 (3724人评价)
◎豆瓣链接 https://movie.douban.com/subject/30137576/
◎片  长 136分钟
◎导  演 阿彼察邦·韦拉斯哈古 Apichatpong Weerasethakul (id:1009499)
◎编  剧 阿彼察邦·韦拉斯哈古 Apichatpong Weerasethakul (id:1009499)
◎演  员 蒂尔达·斯文顿 Tilda Swinton (id:1025152)
       让娜·巴利巴尔 Jeanne Balibar (id:1000611)
       艾格尼丝·布雷克 Agnes Brekke (id:1466614)
       埃尔金·迪亚兹 Elkin Díaz (id:1466615)
       胡安·帕布罗·乌雷戈 Juan Pablo Urrego (id:1459730)
       丹尼尔·希梅内斯·卡乔 Daniel Giménez Cacho (id:1048359)
       谢萌 Meng Xie (id:1407568)
       贾樟柯 Zhangke Jia (id:1274261)
       蔡胜哲 Maxx Tsai (id:1397767)
       蒂尔达·斯文顿 Tilda Swinton (id:1025152)
       查理·德莫 Charles de Meaux (id:1330607)
       萨永普·穆克迪普罗 Sayombhu Mukdeeprom (id:1304328)
◎简  介

  杰西卡·霍兰德(蒂尔达·斯文顿 Tilda Swinton 饰)是旅居哥伦比亚的欧洲人,她来到波哥大探望她抱病的姐姐(艾格尼丝·布雷克 Agnes Brekke 饰)。由于总是听到希奇的巨响,因而她试图去找寻幻听的根源,并由此起头了一场由空想、偶遇与重逢组成的,与记忆和历史发生反响的旅程。
◎获奖情况 (共3项)
  第74届戛纳电影节 (2021)
  主比赛单元 金棕榈奖(提名)
   └──阿彼察邦·韦拉斯哈古 (id:1009499)
  主比赛单元 评审团奖
   └──阿彼察邦·韦拉斯哈古 (id:1009499)
  第56届美国国家影评人协会奖 (2022)
  最好摄影(提名)
   └──萨永普·穆克迪普罗 (id:1304328)
  1. Video
  2. ID                                       : 1
  3. Format                                   : AVC
  4. Format/Info                              : Advanced Video Codec
  5. Format profile                           : [email protected]
  6. Format settings                          : CABAC / 4 Ref Frames
  7. Format settings, CABAC                   : Yes
  8. Format settings, Reference frames        : 4 frames
  9. Codec ID                                 : avc1
  10. Codec ID/Info                            : Advanced Video Coding
  11. Duration                                 : 2 h 15 min
  12. Bit rate                                 : 2 500 kb/s
  13. Width                                    : 1 920 pixels
  14. Height                                   : 1 036 pixels
  15. Display aspect ratio                     : 1.85:1
  16. Frame rate mode                          : Constant
  17. Frame rate                               : 24.000 FPS
  18. Color space                              : YUV
  19. Chroma subsampling                       : 4:2:0
  20. Bit depth                                : 8 bits
  21. Scan type                                : Progressive
  22. Bits/(Pixel*Frame)                       : 0.052
  23. Stream size                              : 2.37 GiB (92%)
  24. Writing library                          : x264 core 152 r2851M ba24899
  25. Encoding settings                        : cabac=1 / ref=4 / deblock=1:-1:-1 / analyse=0x3:0x113 / me=umh / subme=9 / psy=1 / psy_rd=1.00:0.15 / mixed_ref=1 / me_range=24 / chroma_me=1 / trellis=2 / 8x8dct=1 / cqm=0 / deadzone=21,11 / fast_pskip=1 / chroma_qp_offset=-3 / threads=16 / lookahead_threads=4 / sliced_threads=0 / nr=0 / decimate=1 / interlaced=0 / bluray_compat=0 / constrained_intra=0 / bframes=3 / b_pyramid=2 / b_adapt=2 / b_bias=0 / direct=3 / weightb=1 / open_gop=0 / weightp=2 / keyint=250 / keyint_min=25 / scenecut=40 / intra_refresh=0 / rc_lookahead=50 / rc=2pass / mbtree=1 / bitrate=2500 / ratetol=1.0 / qcomp=0.60 / qpmin=0 / qpmax=69 / qpstep=4 / cplxblur=20.0 / qblur=0.5 / vbv_maxrate=31250 / vbv_bufsize=31250 / nal_hrd=none / filler=0 / ip_ratio=1.40 / aq=3:1.00
  26. Encoded date                             : UTC 2022-01-22 14:58:19
  27. Tagged date                              : UTC 2022-01-22 14:58:19
  28. Codec configuration box                  : avcC
  29. Audio
  30. ID                                       : 2
  31. Format                                   : AAC LC
  32. Format/Info                              : Advanced Audio Codec Low Complexity
  33. Codec ID                                 : mp4a-40-2
  34. Duration                                 : 2 h 15 min
  35. Bit rate mode                            : Constant
  36. Bit rate                                 : 224 kb/s
  37. Channel(s)                               : 6 channels
  38. Channel layout                           : C L R Ls Rs LFE
  39. Sampling rate                            : 48.0 kHz
  40. Frame rate                               : 46.875 FPS (1024 SPF)
  41. Compression mode                         : Lossy
  42. Stream size                              : 218 MiB (8%)
  43. Language                                 : Spanish
  44. Default                                  : Yes
  45. Alternate group                          : 1
  46. Encoded date                             : UTC 2022-01-22 14:58:19
  47. Tagged date                              : UTC 2022-01-22 14:58:19
复制代码







                                       
                                       

                                       
                                       
                                       




回复

使用道具 举报

懒得打字嘛,点击右侧快捷回复 【右侧内容,后台自定义】
您需要登录后才可以回帖 登录 | 立即加入

本版积分规则

Archiver|小黑屋| 蓝光电影网 |网站地图

Copyright © 2021 Comsenz Inc. Powered by 蓝光电影网

蓝光电影网

本站内容由用户自主分享和转载自互联网,转载目的在于传递更多信息,并不代表本网赞同其观点和对其真实性负责。

如有侵权、违反国家法律政策行为,请联系我们,我们会第一时间及时清除和处理!

举报反馈邮箱:[email protected]

快速回复 返回顶部 返回列表