找回密码

蓝光电影网

查看: 462|回复: 5

[2160p] 情到深处 Say.Anything.1989.2160p.WEB-DL.x265.10bit.SDR.DTS-HD.MA.5.1-TEPES 16.49GB

[复制链接]
蓝光币
815
发表于 2022-1-23 20:49:04 | 显示全部楼层 |阅读模式


◎译  名 情到深处
◎片  名 Say Anything...
◎年  代 1989
◎产  地 美国
◎类  别 剧情 / 笑剧 / 恋爱
◎语  言 英语
◎上映日期 1989-04-14
◎IMDb链接 https://www.imdb.com/title/tt0098258/
◎豆瓣评分 7.5/10 (3402人评价)
◎豆瓣链接 https://movie.douban.com/subject/1300529/
◎片  长 100 分钟
◎导  演 卡梅伦·克罗 Cameron Crowe (id:1010607)
◎编  剧 卡梅伦·克罗 Cameron Crowe (id:1010607)
◎演  员 约翰·库萨克 John Cusack (id:1018986)
       艾农·斯凯 Ione Skye (id:1049572)
       约翰·马奥尼 John Mahoney (id:1054959)
       莉莉·泰勒 Lili Taylor (id:1031888)
       杰里米·皮文 Jeremy Piven (id:1027071)
       Jim Ladd Jim Ladd (id:1104152)
       Russel Lunday Russel Lunday (id:1116926)
       齐娜·菲利浦斯 Chynna Phillips (id:1136978)
       Tom Lawrence Tom Lawrence (id:1108351)
       Stephen Shortridge Stephen Shortridge (id:1145833)
       比利·史蒂文森 Bill Stevenson (id:1149672)
       金·沃克 Kim Walker (id:1166855)
       Chris Ziesmer Chris Ziesmer (id:1169030)
       帕梅拉·阿德龙 Pamela Adlon (id:1143044)
       查尔斯·沃克 Charles Walker (id:1300292)
       丹·卡斯泰兰尼塔 Dan Castellaneta (id:1041148)
       Montrose Hagins Montrose Hagins (id:1101115)
       Glenn Walker Harris Jr. Glenn Walker Harris Jr. (id:1094201)
       埃里克·斯托尔兹 Eric Stoltz (id:1027814)
       洛伊丝·奇利斯 Lois Chiles (id:1000271)
       琼·库萨克 Joan Cusack (id:1027139)
       Jason Gould Jason Gould (id:1014106)
       毕比·诺维尔什 Bebe Neuwirth (id:1013915)
       理查德·波特诺 Richard Portnow (id:1007093)
       约翰·希尔内尔 John Hillner (id:1091067)
       Mindy Feldman Mindy Feldman (id:1088357)
       格洛丽亚·克伦威尔 Gloria Cromwell (id:1074044)
       劳恩·迪恩 Loren Dean (id:1055500)
       Jaime Gomez Jaime Gomez (id:1054575)
       唐龙·威尔逊 Don 'The Dragon' Wilson (id:1049970)
       菲利普·贝克·霍尔 Philip Baker Hall (id:1049779)
       波莉·普拉特 Polly Platt (id:1005348)
       波莉·普拉特 Polly Platt (id:1005348)
       詹姆斯·L·布鲁克斯 James L. Brooks (id:1045001)
       理查德·马克斯 Richard Marks (id:1120890)
       保罗·杰曼 Paul Germain (id:1019708)
       安妮·达德莉 Anne Dudley (id:1048431)
       Richard Gibbs Richard Gibbs (id:1037124)
       拉兹洛·科瓦奇 László Kovács (id:1048332)
       理查德·马克斯 Richard Marks (id:1120890)
       兰迪·斯通 Randy Stone (id:1027594)
       马克·W·曼斯布里奇 Mark W. Mansbridge (id:1290903)
       Jane Ruhm Jane Ruhm (id:1296326)
       朱迪斯·A·科里 Judith A. Cory (id:1281330)
       Cheri Minns Cheri Minns (id:1292175)
       Bryan Denegal Bryan Denegal (id:1282241)
       Herb Adelman Herb Adelman (id:1276848)
◎简  介

  这部寓意深入的青春笑剧报告了一个完全没有人生方针,整天只会和女孩子厮混和打泰国拳的高中生发愤要追到同届品学兼优的富家女,最初真的给追上了。这类穷小子追富家女的故事早就老套了,该片之所以成功是它成功地塑造了剧中这个富家女的父亲。他不单对女儿照顾得无微不至,且父兼母职,并赞成了女儿作出的非凡挑选,概况上是个好父亲,究竟真相却相反:他是一个骗子,一个用计欺骗老人财富,用计骗政府严重逃税,也骗了一向相信他的女儿。编导这时则给人以一严厉的主题——“爱"和“信赖"这两种人世最贵重的工具,你在特定条件下若何拔取。本片出色的对白和演员的出色表演都值得一看。
  1. Video
  2. ID                                       : 1
  3. Format                                   : HEVC
  4. Format/Info                              : High Efficiency Video Coding
  5. Format profile                           : Main [email protected]@High
  6. Codec ID                                 : V_MPEGH/ISO/HEVC
  7. Duration                                 : 1 h 40 min
  8. Bit rate                                 : 20.8 Mb/s
  9. Width                                    : 3 840 pixels
  10. Height                                   : 2 076 pixels
  11. Display aspect ratio                     : 1.85:1
  12. Frame rate mode                          : Constant
  13. Frame rate                               : 23.976 FPS
  14. Color space                              : YUV
  15. Chroma subsampling                       : 4:2:0
  16. Bit depth                                : 10 bits
  17. Bits/(Pixel*Frame)                       : 0.109
  18. Stream size                              : 14.6 GiB (88%)
  19. Language                                 : English
  20. Default                                  : Yes
  21. Forced                                   : No
  22. Color range                              : Limited
  23. Color primaries                          : BT.709
  24. Transfer characteristics                 : BT.709
  25. Matrix coefficients                      : BT.709
  26. Audio #1
  27. ID                                       : 2
  28. Format                                   : DTS XLL
  29. Format/Info                              : Digital Theater Systems
  30. Commercial name                          : DTS-HD Master Audio
  31. Codec ID                                 : A_DTS
  32. Duration                                 : 1 h 40 min
  33. Bit rate mode                            : Variable
  34. Bit rate                                 : 2 482 kb/s
  35. Channel(s)                               : 6 channels
  36. Channel layout                           : C L R Ls Rs LFE
  37. Sampling rate                            : 48.0 kHz
  38. Frame rate                               : 93.750 FPS (512 SPF)
  39. Bit depth                                : 24 bits
  40. Compression mode                         : Lossless
  41. Delay relative to video                  : 8 ms
  42. Stream size                              : 1.74 GiB (11%)
  43. Title                                    : DTS-HD Master Audio / 5.1 / 48 kHz / 2489 kbps / 24-bit
  44. Language                                 : English
  45. Default                                  : Yes
  46. Forced                                   : No
  47. Audio #2
  48. ID                                       : 3
  49. Format                                   : AC-3
  50. Format/Info                              : Audio Coding 3
  51. Commercial name                          : Dolby Digital
  52. Codec ID                                 : A_AC3
  53. Duration                                 : 1 h 40 min
  54. Bit rate mode                            : Constant
  55. Bit rate                                 : 224 kb/s
  56. Channel(s)                               : 2 channels
  57. Channel layout                           : L R
  58. Sampling rate                            : 48.0 kHz
  59. Frame rate                               : 31.250 FPS (1536 SPF)
  60. Compression mode                         : Lossy
  61. Delay relative to video                  : 19 ms
  62. Stream size                              : 161 MiB (1%)
  63. Title                                    : Commentary by director Cameron Crowe and actors John Cusack and Ione Skye
  64. Language                                 : English
  65. Service kind                             : Complete Main
  66. Default                                  : No
  67. Forced                                   : No
  68. Text #1
  69. ID                                       : 4
  70. Format                                   : UTF-8
  71. Codec ID                                 : S_TEXT/UTF8
  72. Codec ID/Info                            : UTF-8 Plain Text
  73. Duration                                 : 1 h 40 min
  74. Bit rate                                 : 55 b/s
  75. Count of elements                        : 1100
  76. Stream size                              : 41.0 KiB (0%)
  77. Language                                 : English
  78. Default                                  : No
  79. Forced                                   : No
  80. Text #2
  81. ID                                       : 5
  82. Format                                   : UTF-8
  83. Codec ID                                 : S_TEXT/UTF8
  84. Codec ID/Info                            : UTF-8 Plain Text
  85. Duration                                 : 1 h 40 min
  86. Bit rate                                 : 57 b/s
  87. Count of elements                        : 1403
  88. Stream size                              : 41.9 KiB (0%)
  89. Title                                    : Traditional
  90. Language                                 : Chinese
  91. Default                                  : No
  92. Forced                                   : No
  93. Text #3
  94. ID                                       : 6
  95. Format                                   : UTF-8
  96. Codec ID                                 : S_TEXT/UTF8
  97. Codec ID/Info                            : UTF-8 Plain Text
  98. Duration                                 : 1 h 40 min
  99. Bit rate                                 : 52 b/s
  100. Count of elements                        : 906
  101. Stream size                              : 38.1 KiB (0%)
  102. Language                                 : Danish
  103. Default                                  : No
  104. Forced                                   : No
  105. Text #4
  106. ID                                       : 7
  107. Format                                   : UTF-8
  108. Codec ID                                 : S_TEXT/UTF8
  109. Codec ID/Info                            : UTF-8 Plain Text
  110. Duration                                 : 1 h 34 min
  111. Bit rate                                 : 63 b/s
  112. Count of elements                        : 1105
  113. Stream size                              : 43.9 KiB (0%)
  114. Language                                 : German
  115. Default                                  : No
  116. Forced                                   : No
  117. Text #5
  118. ID                                       : 8
  119. Format                                   : UTF-8
  120. Codec ID                                 : S_TEXT/UTF8
  121. Codec ID/Info                            : UTF-8 Plain Text
  122. Duration                                 : 1 h 40 min
  123. Bit rate                                 : 61 b/s
  124. Count of elements                        : 1204
  125. Stream size                              : 44.8 KiB (0%)
  126. Title                                    : Latin American
  127. Language                                 : Spanish
  128. Default                                  : No
  129. Forced                                   : No
  130. Text #6
  131. ID                                       : 9
  132. Format                                   : UTF-8
  133. Codec ID                                 : S_TEXT/UTF8
  134. Codec ID/Info                            : UTF-8 Plain Text
  135. Duration                                 : 1 h 40 min
  136. Bit rate                                 : 53 b/s
  137. Count of elements                        : 915
  138. Stream size                              : 39.1 KiB (0%)
  139. Language                                 : Finnish
  140. Default                                  : No
  141. Forced                                   : No
  142. Text #7
  143. ID                                       : 10
  144. Format                                   : UTF-8
  145. Codec ID                                 : S_TEXT/UTF8
  146. Codec ID/Info                            : UTF-8 Plain Text
  147. Duration                                 : 1 h 40 min
  148. Bit rate                                 : 53 b/s
  149. Count of elements                        : 1103
  150. Stream size                              : 39.5 KiB (0%)
  151. Language                                 : French
  152. Default                                  : No
  153. Forced                                   : No
  154. Text #8
  155. ID                                       : 11
  156. Format                                   : UTF-8
  157. Codec ID                                 : S_TEXT/UTF8
  158. Codec ID/Info                            : UTF-8 Plain Text
  159. Duration                                 : 1 h 40 min
  160. Bit rate                                 : 57 b/s
  161. Count of elements                        : 1108
  162. Stream size                              : 42.1 KiB (0%)
  163. Language                                 : Italian
  164. Default                                  : No
  165. Forced                                   : No
  166. Text #9
  167. ID                                       : 12
  168. Format                                   : UTF-8
  169. Codec ID                                 : S_TEXT/UTF8
  170. Codec ID/Info                            : UTF-8 Plain Text
  171. Duration                                 : 1 h 40 min
  172. Bit rate                                 : 65 b/s
  173. Count of elements                        : 1168
  174. Stream size                              : 47.6 KiB (0%)
  175. Language                                 : Dutch
  176. Default                                  : No
  177. Forced                                   : No
  178. Text #10
  179. ID                                       : 13
  180. Format                                   : UTF-8
  181. Codec ID                                 : S_TEXT/UTF8
  182. Codec ID/Info                            : UTF-8 Plain Text
  183. Duration                                 : 1 h 40 min
  184. Bit rate                                 : 52 b/s
  185. Count of elements                        : 908
  186. Stream size                              : 38.5 KiB (0%)
  187. Language                                 : Norwegian
  188. Default                                  : No
  189. Forced                                   : No
  190. Text #11
  191. ID                                       : 14
  192. Format                                   : UTF-8
  193. Codec ID                                 : S_TEXT/UTF8
  194. Codec ID/Info                            : UTF-8 Plain Text
  195. Duration                                 : 1 h 40 min
  196. Bit rate                                 : 57 b/s
  197. Count of elements                        : 1170
  198. Stream size                              : 42.4 KiB (0%)
  199. Title                                    : Brazilian
  200. Language                                 : Portuguese
  201. Default                                  : No
  202. Forced                                   : No
  203. Text #12
  204. ID                                       : 15
  205. Format                                   : UTF-8
  206. Codec ID                                 : S_TEXT/UTF8
  207. Codec ID/Info                            : UTF-8 Plain Text
  208. Duration                                 : 1 h 40 min
  209. Bit rate                                 : 95 b/s
  210. Count of elements                        : 1170
  211. Stream size                              : 70.1 KiB (0%)
  212. Language                                 : Russian
  213. Default                                  : No
  214. Forced                                   : No
  215. Text #13
  216. ID                                       : 16
  217. Format                                   : UTF-8
  218. Codec ID                                 : S_TEXT/UTF8
  219. Codec ID/Info                            : UTF-8 Plain Text
  220. Duration                                 : 1 h 40 min
  221. Bit rate                                 : 53 b/s
  222. Count of elements                        : 908
  223. Stream size                              : 39.4 KiB (0%)
  224. Language                                 : Swedish
  225. Default                                  : No
  226. Forced                                   : No
  227. Text #14
  228. ID                                       : 17
  229. Format                                   : UTF-8
  230. Codec ID                                 : S_TEXT/UTF8
  231. Codec ID/Info                            : UTF-8 Plain Text
  232. Duration                                 : 1 h 40 min
  233. Bit rate                                 : 62 b/s
  234. Count of elements                        : 1170
  235. Stream size                              : 45.7 KiB (0%)
  236. Language                                 : Turkish
  237. Default                                  : No
  238. Forced                                   : No
  239. Text #15
  240. ID                                       : 18
  241. Format                                   : UTF-8
  242. Codec ID                                 : S_TEXT/UTF8
  243. Codec ID/Info                            : UTF-8 Plain Text
  244. Duration                                 : 1 h 40 min
  245. Bit rate                                 : 56 b/s
  246. Count of elements                        : 1403
  247. Stream size                              : 41.3 KiB (0%)
  248. Title                                    : Cantonese
  249. Language                                 : Chinese
  250. Default                                  : No
  251. Forced                                   : No
  252. Menu
  253. 00:00:00.000                             : en:Main Title
  254. 00:01:41.518                             : en:Graduation
  255. 00:11:03.663                             : en:Kick Boxing
  256. 00:13:09.664                             : en:Good News
  257. 00:15:56.247                             : en:A Date
  258. 00:23:14.226                             : en:A Songwriter
  259. 00:30:36.835                             : en:The Keymaster
  260. 00:36:46.747                             : en:Lloyd is Doomed
  261. 00:42:35.428                             : en:The I.R.S.
  262. 00:44:44.724                             : en:Old People
  263. 00:47:43.820                             : en:Friends with Potential
  264. 00:52:40.032                             : en:A Father\'s Concern
  265. 00:58:21.582                             : en:About the Future
  266. 01:01:36.318                             : en:Love Hurts
  267. 01:09:09.688                             : en:Advice
  268. 01:16:23.913                             : en:Serenade
  269. 01:17:54.462                             : en:About Your Father
  270. 01:24:46.624                             : en:Plea Bargaining
  271. 01:32:29.878                             : en:The Flight
  272. 01:35:15.126                             : en:End Titles
复制代码




                                       
                                       

                                       
                                       
                                       




回复

使用道具 举报

蓝光币
61
发表于 2022-1-23 21:48:34 | 显示全部楼层

这东西我收了!谢谢楼主!蓝光电影网真好!
回复 支持 反对

使用道具 举报

蓝光币
1
发表于 2022-1-23 23:47:42 | 显示全部楼层
感谢分享
回复

使用道具 举报

蓝光币
382
发表于 2022-1-24 01:13:12 | 显示全部楼层
楼主发贴辛苦了,谢谢楼主分享!我觉得蓝光电影网是注册对了!
回复 支持 反对

使用道具 举报

蓝光币
8
发表于 2022-1-24 02:43:12 | 显示全部楼层
很好的片子,感谢楼主分享!
回复 支持 反对

使用道具 举报

蓝光币
4
发表于 2022-1-25 14:45:53 | 显示全部楼层
怀旧一下
回复

使用道具 举报

懒得打字嘛,点击右侧快捷回复 【右侧内容,后台自定义】
您需要登录后才可以回帖 登录 | 立即加入

本版积分规则

Archiver|小黑屋| 蓝光电影网 |网站地图

Copyright © 2021 Comsenz Inc. Powered by 蓝光电影网

蓝光电影网

本站内容由用户自主分享和转载自互联网,转载目的在于传递更多信息,并不代表本网赞同其观点和对其真实性负责。

如有侵权、违反国家法律政策行为,请联系我们,我们会第一时间及时清除和处理!

举报反馈邮箱:[email protected]

快速回复 返回顶部 返回列表