找回密码

蓝光电影网

查看: 256|回复: 3

[剧情] 死亡使者 A.Day.Of.Judgment.1981.720p.BluRay.x264-WATCHABLE 5.83GB

[复制链接]
蓝光币
815
发表于 2022-1-26 08:26:27 | 显示全部楼层 |阅读模式


◎译  名 灭亡使者
◎片  名 A Day of Judgment
◎年  代 1981
◎产  地 美国
◎类  别 剧情 / 行动 / 可骇
◎语  言 英语
◎上映日期 1981
◎IMDb链接 https://www.imdb.com/title/tt0221902/
◎豆瓣链接 https://movie.douban.com/subject/5084075/
◎演  员 Arthur Smith Arthur Smith (id:1152466)
◎简  介

  In the 1920s, a man in black rides into a small Southern town to visit retribution upon the citizens who have strayed from the path of righteousness and religion. He does this, of course, by killing them in various bloody ways.
  1. Video
  2. ID                                       : 1
  3. Format                                   : AVC
  4. Format/Info                              : Advanced Video Codec
  5. Format profile                           : [email protected]
  6. Format settings                          : CABAC / 8 Ref Frames
  7. Format settings, CABAC                   : Yes
  8. Format settings, Reference frames        : 8 frames
  9. Codec ID                                 : V_MPEG4/ISO/AVC
  10. Duration                                 : 1 h 36 min
  11. Bit rate                                 : 7 779 kb/s
  12. Width                                    : 1 280 pixels
  13. Height                                   : 720 pixels
  14. Display aspect ratio                     : 16:9
  15. Frame rate mode                          : Constant
  16. Frame rate                               : 23.976 (24000/1001/189150) FPS
  17. Color space                              : YUV
  18. Chroma subsampling                       : 4:2:0
  19. Bit depth                                : 8 bits
  20. Scan type                                : Progressive
  21. Bits/(Pixel*Frame)                       : 0.352
  22. Stream size                              : 5.26 GiB (90%)
  23. Writing library                          : x264 core 164 r3081 19856cc
  24. Encoding settings                        : cabac=1 / ref=8 / deblock=1:-3:-3 / analyse=0x3:0x133 / me=umh / subme=9 / psy=1 / psy_rd=1.00:0.00 / mixed_ref=1 / me_range=16 / chroma_me=1 / trellis=2 / 8x8dct=1 / cqm=0 / deadzone=21,11 / fast_pskip=1 / chroma_qp_offset=-2 / threads=22 / lookahead_threads=1 / sliced_threads=0 / nr=0 / decimate=1 / interlaced=0 / bluray_compat=0 / constrained_intra=0 / bframes=3 / b_pyramid=2 / b_adapt=2 / b_bias=0 / direct=3 / weightb=1 / open_gop=0 / weightp=2 / keyint=250 / keyint_min=23 / scenecut=40 / intra_refresh=0 / rc_lookahead=60 / rc=crf / mbtree=1 / crf=20.0 / qcomp=0.60 / qpmin=0 / qpmax=69 / qpstep=4 / ip_ratio=1.40 / aq=1:1.00
  25. Default                                  : Yes
  26. Forced                                   : No
  27. Color range                              : Limited
  28. Color primaries                          : BT.709
  29. Transfer characteristics                 : BT.709
  30. Matrix coefficients                      : BT.709
  31. Audio
  32. ID                                       : 2
  33. Format                                   : FLAC
  34. Format/Info                              : Free Lossless Audio Codec
  35. Codec ID                                 : A_FLAC
  36. Duration                                 : 1 h 36 min
  37. Bit rate mode                            : Variable
  38. Bit rate                                 : 840 kb/s
  39. Channel(s)                               : 2 channels
  40. Channel layout                           : L R
  41. Sampling rate                            : 48.0 kHz
  42. Frame rate                               : 10.417 FPS (4608 SPF)
  43. Bit depth                                : 24 bits
  44. Compression mode                         : Lossless
  45. Stream size                              : 582 MiB (10%)
  46. Title                                    : English
  47. Writing library                          : Lavf58.65.100
  48. Language                                 : English
  49. Default                                  : Yes
  50. Forced                                   : No
  51. Text #1
  52. ID                                       : 3
  53. Format                                   : UTF-8
  54. Codec ID                                 : S_TEXT/UTF8
  55. Codec ID/Info                            : UTF-8 Plain Text
  56. Duration                                 : 1 h 34 min
  57. Bit rate                                 : 60 b/s
  58. Count of elements                        : 1358
  59. Stream size                              : 41.7 KiB (0%)
  60. Title                                    : English SDH SRT
  61. Language                                 : English
  62. Default                                  : No
  63. Forced                                   : No
  64. Text #2
  65. ID                                       : 4
  66. Format                                   : PGS
  67. Muxing mode                              : zlib
  68. Codec ID                                 : S_HDMV/PGS
  69. Codec ID/Info                            : Picture based subtitle format used on BDs/HD-DVDs
  70. Duration                                 : 1 h 34 min
  71. Bit rate                                 : 26.1 kb/s
  72. Count of elements                        : 2717
  73. Stream size                              : 17.6 MiB (0%)
  74. Title                                    : English SDH PGS
  75. Language                                 : English
  76. Default                                  : No
  77. Forced                                   : No
  78. Menu
  79. 00:00:00.000                             : en:Chapter 01
  80. 00:03:49.563                             : en:Chapter 02
  81. 00:15:51.284                             : en:Chapter 03
  82. 00:26:30.255                             : en:Chapter 04
  83. 00:35:56.821                             : en:Chapter 05
  84. 00:46:12.436                             : en:Chapter 06
  85. 00:56:22.045                             : en:Chapter 07
  86. 01:05:09.906                             : en:Chapter 08
  87. 01:16:27.249                             : en:Chapter 09
  88. 01:29:42.043                             : en:Chapter 10
复制代码





                                       
                                       

                                       
                                       
                                       




回复

使用道具 举报

蓝光币
70
发表于 2022-1-26 09:33:29 | 显示全部楼层

这东西我收了!谢谢楼主!蓝光电影网真好!
回复 支持 反对

使用道具 举报

蓝光币
68
发表于 2022-1-26 10:23:32 来自手机 | 显示全部楼层
惊悚恐怖片之路谢谢
回复 支持 反对

使用道具 举报

蓝光币
279
发表于 2022-1-26 20:04:05 | 显示全部楼层

~ 珍惜+支持 ~
回复

使用道具 举报

懒得打字嘛,点击右侧快捷回复 【右侧内容,后台自定义】
您需要登录后才可以回帖 登录 | 立即加入

本版积分规则

Archiver|小黑屋| 蓝光电影网 |网站地图

Copyright © 2021 Comsenz Inc. Powered by 蓝光电影网

蓝光电影网

本站内容由用户自主分享和转载自互联网,转载目的在于传递更多信息,并不代表本网赞同其观点和对其真实性负责。

如有侵权、违反国家法律政策行为,请联系我们,我们会第一时间及时清除和处理!

举报反馈邮箱:[email protected]

快速回复 返回顶部 返回列表