找回密码

蓝光电影网

查看: 209|回复: 0

[惊悚] 惊魂夜魇 Taste.of.Fear.1961.1080p.BluRay.x264-GUACAMOLE 9.53GB

[复制链接]
蓝光币
815
发表于 2022-1-26 12:54:19 | 显示全部楼层 |阅读模式


◎译  名 惊魂夜魇 / Scream of Fear
◎片  名 Taste of Fear
◎年  代 1961
◎产  地 英国
◎类  别 惊悚 / 可骇
◎语  言 英语 / 法语 / 德语
◎上映日期 1961-06-05
◎IMDb链接 https://www.imdb.com/title/tt0055505/
◎豆瓣评分 7.6/10 (512人评价)
◎豆瓣链接 https://movie.douban.com/subject/1305872/
◎片  长 USA: 81 分钟
◎导  演 赛斯·霍尔特 Seth Holt (id:1436755)
◎编  剧 吉米·桑斯特 Jimmy Sangster (id:1037452)
◎演  员 苏珊·斯塔丝伯格 Susan Strasberg (id:1019159)
       罗纳德·刘易斯 Ronald Lewis (id:1121153)
       安·托德 Ann Todd (id:1005246)
       克里斯托弗·李 Christopher Lee (id:1054467)
       Leonard Sachs Leonard Sachs (id:1138166)
       Anne Blake Anne Blake (id:1066847)
       Fred Johnson Fred Johnson (id:1025624)
       Heinz Bernard Heinz Bernard (id:1066284)
       Rodney Burke Rodney Burke (id:1077722)
       迈克尔·卡雷拉斯 Michael Carreras (id:1037696)
       吉米·桑斯特 Jimmy Sangster (id:1037452)
       Clifton Parker Clifton Parker (id:1008625)
       道格拉斯·斯洛科姆 Douglas Slocombe (id:1007237)
       Basil Newall Basil Newall (id:1131261)
       大卫·汤布林 David Tomblin (id:1028731)
◎简  介

  佩妮(苏珊·斯塔丝伯格 Susan Strasberg 饰)的怙恃在她很小的时辰就仳离了,一向以来,佩妮都随着母亲生活。一场意外夺走了母亲的生命,因而,孤苦无依的佩妮接管了父亲的约请,前往和父亲以及继母一路生活。但是到了父亲家,佩妮却发现在那边的只要继母一人,虽然这个女人表示得很是的和善与热情,但佩妮还是对她布满了防备。                                    
                                继母家里发生的各类诡异的工作,以及始终着落不明的父亲让佩妮的神经越来越严重,渐渐地,她起头分不清,在这里履历的一切,究竟能否是自己的幻觉。很明显,继母也希望佩妮发生这让的自我思疑。
  1. Video
  2. ID                                       : 1
  3. Format                                   : AVC
  4. Format/Info                              : Advanced Video Codec
  5. Format profile                           : [email protected]
  6. Format settings                          : CABAC / 4 Ref Frames
  7. Format settings, CABAC                   : Yes
  8. Format settings, Reference frames        : 4 frames
  9. Codec ID                                 : V_MPEG4/ISO/AVC
  10. Duration                                 : 1 h 21 min
  11. Bit rate                                 : 16.5 Mb/s
  12. Width                                    : 1 804 pixels
  13. Height                                   : 1 080 pixels
  14. Display aspect ratio                     : 5:3
  15. Frame rate mode                          : Constant
  16. Frame rate                               : 24.000 FPS
  17. Color space                              : YUV
  18. Chroma subsampling                       : 4:2:0
  19. Bit depth                                : 8 bits
  20. Scan type                                : Progressive
  21. Bits/(Pixel*Frame)                       : 0.353
  22. Stream size                              : 9.40 GiB (99%)
  23. Writing library                          : x264 core 164 r3081 19856cc
  24. Encoding settings                        : cabac=1 / ref=4 / deblock=1:-3:-3 / analyse=0x3:0x133 / me=umh / subme=9 / psy=1 / psy_rd=1.00:0.00 / mixed_ref=1 / me_range=16 / chroma_me=1 / trellis=2 / 8x8dct=1 / cqm=0 / deadzone=21,11 / fast_pskip=0 / chroma_qp_offset=-2 / threads=24 / lookahead_threads=2 / sliced_threads=0 / nr=0 / decimate=1 / interlaced=0 / bluray_compat=0 / constrained_intra=0 / bframes=3 / b_pyramid=2 / b_adapt=2 / b_bias=0 / direct=3 / weightb=1 / open_gop=0 / weightp=2 / keyint=250 / keyint_min=24 / scenecut=40 / intra_refresh=0 / rc_lookahead=60 / rc=crf / mbtree=1 / crf=18.0 / qcomp=0.60 / qpmin=0 / qpmax=69 / qpstep=4 / ip_ratio=1.40 / aq=3:0.60
  25. Default                                  : Yes
  26. Forced                                   : No
  27. Color range                              : Limited
  28. Matrix coefficients                      : BT.709

  29. Audio
  30. ID                                       : 2
  31. Format                                   : FLAC
  32. Format/Info                              : Free Lossless Audio Codec
  33. Codec ID                                 : A_FLAC
  34. Duration                                 : 1 h 21 min
  35. Bit rate mode                            : Variable
  36. Bit rate                                 : 229 kb/s
  37. Channel(s)                               : 2 channels
  38. Channel layout                           : L R
  39. Sampling rate                            : 48.0 kHz
  40. Frame rate                               : 11.719 FPS (4096 SPF)
  41. Bit depth                                : 16 bits
  42. Compression mode                         : Lossless
  43. Stream size                              : 133 MiB (1%)
  44. Writing library                          : libFLAC 1.2.1 (UTC 2007-09-17)
  45. Language                                 : English
  46. Default                                  : Yes
  47. Forced                                   : No

  48. Text
  49. ID                                       : 3
  50. Format                                   : PGS
  51. Muxing mode                              : zlib
  52. Codec ID                                 : S_HDMV/PGS
  53. Codec ID/Info                            : Picture based subtitle format used on BDs/HD-DVDs
  54. Duration                                 : 1 h 17 min
  55. Bit rate                                 : 8 927 b/s
  56. Count of elements                        : 1675
  57. Stream size                              : 4.93 MiB (0%)
  58. Language                                 : German
  59. Default                                  : No
  60. Forced                                   : No

  61. Menu
  62. 00:00:00.000                             : en:00:00:00.000
  63. 00:03:28.000                             : en:00:03:28.000
  64. 00:07:43.792                             : en:00:07:43.792
  65. 00:10:57.583                             : en:00:10:57.583
  66. 00:14:07.458                             : en:00:14:07.458
  67. 00:21:54.000                             : en:00:21:54.000
  68. 00:24:56.000                             : en:00:24:56.000
  69. 00:28:15.208                             : en:00:28:15.208
  70. 00:31:50.583                             : en:00:31:50.583
  71. 00:34:34.000                             : en:00:34:34.000
  72. 00:40:19.792                             : en:00:40:19.792
  73. 00:44:45.000                             : en:00:44:45.000
  74. 00:48:11.000                             : en:00:48:11.000
  75. 00:51:25.000                             : en:00:51:25.000
  76. 00:55:56.625                             : en:00:55:56.625
  77. 01:02:09.625                             : en:01:02:09.625
  78. 01:05:29.000                             : en:01:05:29.000
  79. 01:08:39.000                             : en:01:08:39.000
  80. 01:12:05.000                             : en:01:12:05.000
  81. 01:16:04.792                             : en:01:16:04.792
复制代码





                                       
                                       

                                       
                                       
                                       




回复

使用道具 举报

懒得打字嘛,点击右侧快捷回复 【右侧内容,后台自定义】
您需要登录后才可以回帖 登录 | 立即加入

本版积分规则

Archiver|小黑屋| 蓝光电影网 |网站地图

Copyright © 2021 Comsenz Inc. Powered by 蓝光电影网

蓝光电影网

本站内容由用户自主分享和转载自互联网,转载目的在于传递更多信息,并不代表本网赞同其观点和对其真实性负责。

如有侵权、违反国家法律政策行为,请联系我们,我们会第一时间及时清除和处理!

举报反馈邮箱:[email protected]

快速回复 返回顶部 返回列表