找回密码

蓝光电影网

查看: 208|回复: 0

[剧情] 一代人 A.Generation.1955.POLISH.1080p.BluRay.x264.FLAC.2.0-HANDJOB 7.71GB

[复制链接]
蓝光币
815
发表于 2022-1-26 16:29:54 | 显示全部楼层 |阅读模式


◎译  名 一代人 / 战役的青年一代 / A Generation
◎片  名 Pokolenie
◎年  代 1955
◎产  地 波兰
◎类  别 剧情 / 战争
◎语  言 波兰语 / 德语
◎上映日期 1955-01-26(波兰)
◎IMDb链接 https://www.imdb.com/title/tt0048500/
◎豆瓣评分 7.4/10 (1478人评价)
◎豆瓣链接 https://movie.douban.com/subject/1417454/
◎片  长 87分钟
◎导  演 安杰伊·瓦伊达 Andrzej Wajda (id:1032325)
◎编  剧 博赫丹·切什科 Bohdan Czeszko (id:1004453)
◎演  员 塔德乌什·罗姆尼斯基 Tadeusz Lomnicki (id:1124421)
       乌尔舒拉·莫杰任斯卡 Urszula Modrzynska (id:1124101)
       塔杜施·扬查尔 Tadeusz Janczar (id:1110486)
       雅努什·帕卢什凯维奇 Janusz Paluszkiewicz (id:1136709)
       理夏德·科蒂希 Ryszard Kotys (id:1102715)
       罗曼·波兰斯基 Roman Polanski (id:1054420)
       卢德维克·伯努瓦 Ludwik Benoit (id:1062626)
       索菲娅·切尔文斯卡 Zofia Czerwinska (id:1072588)
       兹比格涅夫·齐布尔斯基 Zbigniew Cybulski (id:1041722)
       菲耶夫斯基·塔德乌什 Tadeusz Fijewski (id:1013053)
       齐格蒙特·霍博特 Zygmunt Hobot (id:1099642)
       采扎里·尤尔斯基 Cezary Julski (id:1109260)
       布罗尼斯瓦夫·卡索夫斯基 Bronislaw Kassowski (id:1108671)
       奥古斯特·科瓦尔奇克 August Kowalczyk (id:1112823)
       耶日·克拉索夫斯基 Jerzy Krasowski (id:1107022)
       Zenon Laurentowski Zenon Laurentowski (id:1103941)
       Stanislaw Milski Stanislaw Milski (id:1117431)
       Juliusz Roland Juliusz Roland (id:1142419)
       汉娜·斯卡尔赞卡 Hanna Skarzanka (id:1159104)
       Janusz Sciwiarski Janusz Sciwiarski (id:1139534)
       卡齐米日·维赫尼亚日 Kazimierz Wichniarz (id:1166705)
       Zygmunt Zintel Zygmunt Zintel (id:1168521)
       Ryszard Ber Ryszard Ber (id:1007293)
       Bronislaw Dardzinski Bronislaw Dardzinski (id:1089613)
       维斯拉夫·格拉斯 Wieslaw Golas (id:1029107)
       Zofia Jamry Zofia Jamry (id:1102681)
       Mieczyslaw Kalenik Mieczyslaw Kalenik (id:1103300)
       Henryk Kucharski Henryk Kucharski (id:1109219)
       卡其米尔茨·库茨 Kazimierz Kutz (id:1008265)
       扬·马休斯基 Jan Machulski (id:1012759)
       弗朗齐歇克·皮耶奇卡 Franciszek Pieczka (id:1135094)
       Janusz Strachocki Janusz Strachocki (id:1150536)
       Mieczyslaw Waskowski Mieczyslaw Waskowski (id:1026739)
       Danuta Wodynska Danuta Wodynska (id:1168296)
       Stefan Wroncki Stefan Wroncki (id:1164876)
◎简  介

  在被德国占据的波兰,年轻一代长大了。Stach就是其中一个,他和朋友们开初只是自觉地处置危险的抵抗活动,总的来说是无构造无目标。后来在一个慈爱的共产党干部的率领下,他打仗到了地下构造。当看到阿谁勇敢美丽的青年魁首Dorota时,他就加入了进去并与Dorota坠入爱河。接着Stach就投入抵挡榨取和屈辱的危险活动中,直到要对其他人的生命负责时他就酿成熟了。不幸的是Dorota被拘系,Stach欣喜若狂。与此同时,地下抵抗构造招募了新成员,新的一代正在长大。
  1. Video
  2. ID                                       : 1
  3. Format                                   : AVC
  4. Format/Info                              : Advanced Video Codec
  5. Format profile                           : [email protected]
  6. Format settings                          : CABAC / 5 Ref Frames
  7. Format settings, CABAC                   : Yes
  8. Format settings, Reference frames        : 5 frames
  9. Codec ID                                 : V_MPEG4/ISO/AVC
  10. Duration                                 : 1 h 24 min
  11. Bit rate                                 : 12.6 Mb/s
  12. Width                                    : 1 488 pixels
  13. Height                                   : 1 080 pixels
  14. Display aspect ratio                     : 1.378
  15. Frame rate mode                          : Constant
  16. Frame rate                               : 23.976 (24000/1001/189150) FPS
  17. Color space                              : YUV
  18. Chroma subsampling                       : 4:2:0
  19. Bit depth                                : 8 bits
  20. Scan type                                : Progressive
  21. Bits/(Pixel*Frame)                       : 0.328
  22. Stream size                              : 7.48 GiB (97%)
  23. Writing library                          : x264 core 157 r2935 545de2f
  24. Encoding settings                        : cabac=1 / ref=5 / deblock=1:-3:-3 / analyse=0x3:0x133 / me=umh / subme=10 / psy=1 / psy_rd=1.00:0.00 / mixed_ref=1 / me_range=32 / chroma_me=1 / trellis=2 / 8x8dct=1 / cqm=0 / deadzone=21,11 / fast_pskip=0 / chroma_qp_offset=-2 / threads=18 / lookahead_threads=4 / sliced_threads=0 / nr=0 / decimate=0 / interlaced=0 / bluray_compat=0 / constrained_intra=0 / bframes=16 / b_pyramid=2 / b_adapt=2 / b_bias=0 / direct=3 / weightb=1 / open_gop=0 / weightp=1 / keyint=240 / keyint_min=24 / scenecut=40 / intra_refresh=0 / rc_lookahead=60 / rc=crf / mbtree=0 / crf=17.0 / qcomp=0.60 / qpmin=0 / qpmax=69 / qpstep=4 / vbv_maxrate=62500 / vbv_bufsize=78125 / crf_max=0.0 / nal_hrd=none / filler=0 / ip_ratio=1.40 / pb_ratio=1.30 / aq=2:1.00
  25. Default                                  : Yes
  26. Forced                                   : No
  27. Color range                              : Limited
  28. Color primaries                          : BT.709
  29. Transfer characteristics                 : BT.709
  30. Matrix coefficients                      : BT.709
  31. Audio
  32. ID                                       : 2
  33. Format                                   : FLAC
  34. Format/Info                              : Free Lossless Audio Codec
  35. Codec ID                                 : A_FLAC
  36. Duration                                 : 1 h 24 min
  37. Bit rate mode                            : Variable
  38. Bit rate                                 : 400 kb/s
  39. Channel(s)                               : 2 channels
  40. Channel layout                           : L R
  41. Sampling rate                            : 48.0 kHz
  42. Frame rate                               : 11.719 FPS (4096 SPF)
  43. Bit depth                                : 16 bits
  44. Compression mode                         : Lossless
  45. Stream size                              : 242 MiB (3%)
  46. Writing library                          : libFLAC 1.2.1 (UTC 2007-09-17)
  47. Language                                 : Polish
  48. Default                                  : Yes
  49. Forced                                   : No
  50. Text
  51. ID                                       : 3
  52. Format                                   : UTF-8
  53. Codec ID                                 : S_TEXT/UTF8
  54. Codec ID/Info                            : UTF-8 Plain Text
  55. Duration                                 : 1 h 23 min
  56. Bit rate                                 : 38 b/s
  57. Count of elements                        : 816
  58. Stream size                              : 23.7 KiB (0%)
  59. Language                                 : English
  60. Default                                  : Yes
  61. Forced                                   : No
  62. Menu
  63. 00:00:00.000                             : :Chapter 1
  64. 00:00:18.018                             : :Chapter 2
  65. 00:07:22.442                             : :Chapter 3
  66. 00:11:02.370                             : :Chapter 4
  67. 00:19:29.543                             : :Chapter 5
  68. 00:24:02.316                             : :Chapter 6
  69. 00:31:01.318                             : :Chapter 7
  70. 00:40:02.483                             : :Chapter 8
  71. 00:49:06.944                             : :Chapter 9
  72. 00:55:29.827                             : :Chapter 10
  73. 01:01:32.063                             : :Chapter 11
  74. 01:08:56.424                             : :Chapter 12
  75. 01:15:39.869                             : :Chapter 13
  76. 01:23:41.391                             : :Chapter 14
复制代码







                                       
                                       

                                       
                                       
                                       




回复

使用道具 举报

懒得打字嘛,点击右侧快捷回复 【右侧内容,后台自定义】
您需要登录后才可以回帖 登录 | 立即加入

本版积分规则

Archiver|小黑屋| 蓝光电影网 |网站地图

Copyright © 2021 Comsenz Inc. Powered by 蓝光电影网

蓝光电影网

本站内容由用户自主分享和转载自互联网,转载目的在于传递更多信息,并不代表本网赞同其观点和对其真实性负责。

如有侵权、违反国家法律政策行为,请联系我们,我们会第一时间及时清除和处理!

举报反馈邮箱:[email protected]

快速回复 返回顶部 返回列表