找回密码

蓝光电影网

查看: 187|回复: 1

[剧情] 诅咒 Damnation.1988.720p.BluRay.x264-ORBS 7.79GB

[复制链接]
蓝光币
815
发表于 2022-1-28 22:39:23 | 显示全部楼层 |阅读模式


◎译  名 诅咒 / 天谴 / 炼狱人世 / 妈的扑灭吧 / Damnation
◎片  名 Kárhozat
◎年  代 1988
◎产  地 匈牙利
◎类  别 剧情 / 恋爱 / 犯罪
◎语  言 匈牙利语
◎上映日期 1988-10-20(匈牙利)
◎IMDb链接 https://www.imdb.com/title/tt0095475/
◎豆瓣评分 8.4/10 (1576人评价)
◎豆瓣链接 https://movie.douban.com/subject/1422055/
◎片  长 116 分钟
◎导  演 贝拉·塔尔 Béla Tarr (id:1152034)
◎编  剧 贝拉·塔尔 Béla Tarr (id:1152034)
       拉斯洛·卡撒兹纳霍凯 László Krasznahorkai (id:1015402)
◎演  员 瓦莉·凯赖凯什 Vali Kerekes (id:1109614)
       乔治·切豪尔米 Gy?rgy Cserhalmi (id:1068547)
       久洛·保尔 Gyula Pauer (id:1035779)
       海迪·泰迈希 Hédi Temessy (id:1154683)
       米克洛什·B·塞凯伊 Miklós B. Székely (id:1156196)
       米哈伊·维格 Mihály Víg (id:1319100)
       Gábor Medvigy Gábor Medvigy (id:1046300)
       阿尼亚斯·赫拉尼茨基 ágnes Hranitzky (id:1320125)
       久洛·保尔 Gyula Pauer (id:1035779)
       久洛·保尔 Gyula Pauer (id:1035779)
       阿尼亚斯·赫拉尼茨基 ágnes Hranitzky (id:1320125)
◎简  介

  破败的矿业小镇,克莱尔(Miklós Székely B. 饰)无所作为,整天游荡,生活感应极端压制。他在泰坦尼克酒吧打发无聊孤单的时光,偶然相逢了一个已婚的驻唱女歌手(Vali Kerekes 饰),克莱尔向这名女子展开追求,但频频遭到拒绝。女歌手不愿纠缠烦琐的恋爱当中,她希望一鸣惊人,早日分开这个压制之地。酒吧老板(Gyula Pauer 饰)向克莱尔供给一桩走私买卖,克莱尔则将买卖转交给女歌手的丈夫塞巴斯蒂安(Gyorgy Cserhalmi 饰),以使其分开小镇几天。但工作却并未一如所愿……
◎获奖情况 (共1项)
  第58届戛纳电影节 (2005)
  法国文化奖-年度本国电影人
   └──贝拉·塔尔 (id:1152034)
  1. Video
  2. ID                                       : 1
  3. Format                                   : AVC
  4. Format/Info                              : Advanced Video Codec
  5. Format profile                           : [email protected]
  6. Format settings                          : CABAC / 9 Ref Frames
  7. Format settings, CABAC                   : Yes
  8. Format settings, Reference frames        : 9 frames
  9. Codec ID                                 : V_MPEG4/ISO/AVC
  10. Duration                                 : 2 h 1 min
  11. Bit rate                                 : 8 878 kb/s
  12. Width                                    : 1 194 pixels
  13. Height                                   : 720 pixels
  14. Display aspect ratio                     : 5:3
  15. Frame rate mode                          : Constant
  16. Frame rate                               : 23.976 (24000/1001/189150) FPS
  17. Color space                              : YUV
  18. Chroma subsampling                       : 4:2:0
  19. Bit depth                                : 8 bits
  20. Scan type                                : Progressive
  21. Bits/(Pixel*Frame)                       : 0.431
  22. Stream size                              : 7.52 GiB (97%)
  23. Writing library                          : x264 core 164 r3079 d9a19f0
  24. Encoding settings                        : cabac=1 / ref=9 / deblock=1:-3:-3 / analyse=0x3:0x133 / me=umh / subme=10 / psy=1 / psy_rd=1.50:0.15 / mixed_ref=1 / me_range=24 / chroma_me=1 / trellis=2 / 8x8dct=1 / cqm=0 / deadzone=21,11 / fast_pskip=0 / chroma_qp_offset=-3 / threads=22 / lookahead_threads=3 / sliced_threads=0 / nr=0 / decimate=0 / interlaced=0 / bluray_compat=0 / constrained_intra=0 / bframes=8 / b_pyramid=2 / b_adapt=2 / b_bias=0 / direct=3 / weightb=1 / open_gop=0 / weightp=2 / keyint=250 / keyint_min=23 / scenecut=40 / intra_refresh=0 / rc_lookahead=60 / rc=crf / mbtree=1 / crf=20.0 / qcomp=0.60 / qpmin=0 / qpmax=69 / qpstep=4 / ip_ratio=1.40 / aq=3:0.50
  25. Default                                  : Yes
  26. Forced                                   : No
  27. Color range                              : Limited
  28. Matrix coefficients                      : BT.709

  29. Audio
  30. ID                                       : 2
  31. Format                                   : FLAC
  32. Format/Info                              : Free Lossless Audio Codec
  33. Codec ID                                 : A_FLAC
  34. Duration                                 : 2 h 1 min
  35. Bit rate mode                            : Variable
  36. Bit rate                                 : 307 kb/s
  37. Channel(s)                               : 1 channel
  38. Channel layout                           : C
  39. Sampling rate                            : 48.0 kHz
  40. Frame rate                               : 11.719 FPS (4096 SPF)
  41. Bit depth                                : 16 bits
  42. Compression mode                         : Lossless
  43. Stream size                              : 266 MiB (3%)
  44. Writing library                          : libFLAC 1.3.3 (UTC 2019-08-04)
  45. Language                                 : Hungarian
  46. Default                                  : Yes
  47. Forced                                   : No

  48. Text #1
  49. ID                                       : 3
  50. Format                                   : UTF-8
  51. Codec ID                                 : S_TEXT/UTF8
  52. Codec ID/Info                            : UTF-8 Plain Text
  53. Duration                                 : 1 h 59 min
  54. Bit rate                                 : 18 b/s
  55. Count of elements                        : 510
  56. Stream size                              : 16.4 KiB (0%)
  57. Title                                    : English (Forced)
  58. Language                                 : English
  59. Default                                  : Yes
  60. Forced                                   : Yes

  61. Text #2
  62. ID                                       : 4
  63. Format                                   : PGS
  64. Muxing mode                              : zlib
  65. Codec ID                                 : S_HDMV/PGS
  66. Codec ID/Info                            : Picture based subtitle format used on BDs/HD-DVDs
  67. Duration                                 : 1 h 59 min
  68. Bit rate                                 : 11.9 kb/s
  69. Count of elements                        : 1020
  70. Stream size                              : 10.2 MiB (0%)
  71. Language                                 : English
  72. Default                                  : No
  73. Forced                                   : No

  74. Menu
  75. 00:00:00.000                             : Chapter 01
  76. 00:09:47.170                             : Chapter 02
  77. 00:23:23.110                             : Chapter 03
  78. 00:29:16.546                             : Chapter 04
  79. 00:38:18.421                             : Chapter 05
  80. 00:43:40.743                             : Chapter 06
  81. 00:54:57.503                             : Chapter 07
  82. 01:11:36.959                             : Chapter 08
  83. 01:20:23.652                             : Chapter 09
  84. 01:47:46.043                             : Chapter 10
  85. 01:57:16.071                             : Chapter 11
  86. 02:01:16.811                             : Chapter 12
复制代码




                                       
                                       

                                       
                                       
                                       




回复

使用道具 举报

蓝光币
40
发表于 2022-1-28 23:39:33 | 显示全部楼层
楼主发贴辛苦了,谢谢楼主分享!我觉得蓝光电影网是注册对了!
回复 支持 反对

使用道具 举报

懒得打字嘛,点击右侧快捷回复 【右侧内容,后台自定义】
您需要登录后才可以回帖 登录 | 立即加入

本版积分规则

Archiver|小黑屋| 蓝光电影网 |网站地图

Copyright © 2021 Comsenz Inc. Powered by 蓝光电影网

蓝光电影网

本站内容由用户自主分享和转载自互联网,转载目的在于传递更多信息,并不代表本网赞同其观点和对其真实性负责。

如有侵权、违反国家法律政策行为,请联系我们,我们会第一时间及时清除和处理!

举报反馈邮箱:[email protected]

快速回复 返回顶部 返回列表