找回密码

蓝光电影网

查看: 309|回复: 3

[剧情] 安妮特 Annette.2021.1080p.BluRay.x264-BLOW 19.49GB

[复制链接]
蓝光币
815
发表于 2022-1-29 08:15:03 | 显示全部楼层 |阅读模式


◎译  名 安妮特 / ANNETTE:星梦恋歌(台)
◎片  名 Annette
◎年  代 2021
◎产  地 法国 / 墨西哥 / 美国 / 瑞士 / 比利时 / 日本 / 德国
◎类  别 剧情 / 恋爱 / 歌舞
◎语  言 英语
◎上映日期 2021-07-06(戛纳电影节) / 2021-07-07(法国) / 2021-08-20(美国收集)
◎IMDb链接 https://www.imdb.com/title/tt6217926/
◎豆瓣评分 6.9/10 (9907人评价)
◎豆瓣链接 https://movie.douban.com/subject/26856202/
◎片  长 141分钟
◎导  演 莱奥·卡拉克斯 Leos Carax (id:1041401)
◎编  剧 罗恩·梅尔 Ron Mael (id:1118811)
       罗素·梅尔 Russell Mael (id:1125710)
◎演  员 亚当·德赖弗 Adam Driver (id:1322327)
       玛丽昂·歌迪亚 Marion Cotillard (id:1006955)
       西蒙·赫尔伯格 Simon Helberg (id:1036349)
       德温·麦克道维尔 Devyn McDowell (id:1461007)
       罗恩·梅尔 Ron Mael (id:1118811)
       罗素·梅尔 Russell Mael (id:1125710)
       娜塔莉·杰克逊·门多萨 Natalie Jackson Mendoza (id:1022738)
       水原希子 Kiko Mizuhara (id:1275762)
       诺米·沙伦斯 Noémie Schellens (id:1368535)
       古馆宽治 Kanji Furutachi (id:1327503)
       福岛莉拉 Rila Fukushima (id:1326320)
       伊娃·范·德·古奇异 Eva van der Gucht (id:1096528)
       Natalia Lafourcade Natalia Lafourcade (id:1193890)
       维姆·奥普布鲁克 Wim Opbrouck (id:1293599)
       Ella Leyers Ella Leyers (id:1179170)
       亚矢乃 Ayano (id:1321212)
       尼诺·波尔齐奥 Nino Porzio (id:1356508)
       克里斯蒂安·斯基宾斯基 Christian Skibinski (id:1415573)
        Kevin Van Doorslaer (id:1243758)
       帕斯卡琳·夏凡 Pascaline Chavanne (id:1280545)
◎简  介

  报告一对好莱坞佳耦和他们的女儿安妮特的故事:丈夫亨利(亚当·德赖弗 Adam Driver 饰)是一位单口笑剧演员,妻子安则是一位歌剧明星(玛丽昂·歌迪亚 Marion Cotillard 饰),而他们奥秘的女儿安妮特,又具有怎样分歧平常的人生呢?
◎获奖情况 (共14项)
  第74届戛纳电影节 (2021)
  主比赛单元 金棕榈奖(提名)
   └──莱奥·卡拉克斯 (id:1041401)
  主比赛单元 最好导演
   └──莱奥·卡拉克斯 (id:1041401)
  第79届金球奖 (2022)
  电影类 音乐/笑剧片最好女配角(提名)
   └──玛丽昂·歌迪亚 (id:1006955)
  第47届法国凯撒电影奖 (2022)
  最好影片(提名)
  最好导演(提名)
   └──莱奥·卡拉克斯 (id:1041401)
  最好男配角(提名)
   └──亚当·德赖弗 (id:1322327)
  最好原创剧本(提名)
  最好摄影(提名)
  最好剪辑(提名)
  最好原创音乐(提名)
  最好音效(提名)
  最好打扮(提名)
  最好布景(提名)
  最好视觉结果(提名)
  1. Video
  2. ID                                       : 1
  3. Format                                   : AVC
  4. Format/Info                              : Advanced Video Codec
  5. Format profile                           : [email protected]
  6. Format settings                          : CABAC / 4 Ref Frames
  7. Format settings, CABAC                   : Yes
  8. Format settings, Reference frames        : 4 frames
  9. Codec ID                                 : V_MPEG4/ISO/AVC
  10. Duration                                 : 2 h 20 min
  11. Bit rate                                 : 16.4 Mb/s
  12. Width                                    : 1 920 pixels
  13. Height                                   : 1 038 pixels
  14. Display aspect ratio                     : 1.85:1
  15. Frame rate mode                          : Constant
  16. Frame rate                               : 24.000 FPS
  17. Color space                              : YUV
  18. Chroma subsampling                       : 4:2:0
  19. Bit depth                                : 8 bits
  20. Scan type                                : Progressive
  21. Bits/(Pixel*Frame)                       : 0.342
  22. Stream size                              : 16.0 GiB (82%)
  23. Writing library                          : x264 core 164 r3085 0bb85e8
  24. Encoding settings                        : cabac=1 / ref=4 / deblock=1:-3:-3 / analyse=0x3:0x133 / me=umh / subme=9 / psy=1 / psy_rd=1.00:0.00 / mixed_ref=1 / me_range=16 / chroma_me=1 / trellis=2 / 8x8dct=1 / cqm=0 / deadzone=21,11 / fast_pskip=0 / chroma_qp_offset=-2 / threads=24 / lookahead_threads=2 / sliced_threads=0 / nr=0 / decimate=0 / interlaced=0 / bluray_compat=0 / constrained_intra=0 / bframes=3 / b_pyramid=2 / b_adapt=2 / b_bias=0 / direct=3 / weightb=1 / open_gop=0 / weightp=2 / keyint=250 / keyint_min=24 / scenecut=40 / intra_refresh=0 / rc=crf / mbtree=0 / crf=17.0 / qcomp=0.60 / qpmin=0 / qpmax=69 / qpstep=4 / ip_ratio=1.40 / pb_ratio=1.30 / aq=3:0.70
  25. Language                                 : English
  26. Default                                  : Yes
  27. Forced                                   : No
  28. Color range                              : Limited
  29. Matrix coefficients                      : BT.709

  30. Audio
  31. ID                                       : 2
  32. Format                                   : DTS XLL
  33. Format/Info                              : Digital Theater Systems
  34. Commercial name                          : DTS-HD Master Audio
  35. Codec ID                                 : A_DTS
  36. Duration                                 : 2 h 20 min
  37. Bit rate mode                            : Variable
  38. Bit rate                                 : 3 500 kb/s
  39. Channel(s)                               : 6 channels
  40. Channel layout                           : C L R Ls Rs LFE
  41. Sampling rate                            : 48.0 kHz
  42. Frame rate                               : 93.750 FPS (512 SPF)
  43. Bit depth                                : 24 bits
  44. Compression mode                         : Lossless
  45. Stream size                              : 3.43 GiB (18%)
  46. Language                                 : English
  47. Default                                  : Yes
  48. Forced                                   : No

  49. Text #1
  50. ID                                       : 3
  51. Format                                   : UTF-8
  52. Codec ID                                 : S_TEXT/UTF8
  53. Codec ID/Info                            : UTF-8 Plain Text
  54. Duration                                 : 38 min 16 s
  55. Bit rate                                 : 0 b/s
  56. Count of elements                        : 4
  57. Stream size                              : 110 Bytes (0%)
  58. Title                                    : English (FORCED SRT)
  59. Language                                 : English
  60. Default                                  : Yes
  61. Forced                                   : Yes

  62. Text #2
  63. ID                                       : 4
  64. Format                                   : UTF-8
  65. Codec ID                                 : S_TEXT/UTF8
  66. Codec ID/Info                            : UTF-8 Plain Text
  67. Duration                                 : 2 h 18 min
  68. Bit rate                                 : 15 b/s
  69. Count of elements                        : 635
  70. Stream size                              : 15.9 KiB (0%)
  71. Title                                    : English (SRT)
  72. Language                                 : English
  73. Default                                  : No
  74. Forced                                   : No

  75. Text #3
  76. ID                                       : 5
  77. Format                                   : UTF-8
  78. Codec ID                                 : S_TEXT/UTF8
  79. Codec ID/Info                            : UTF-8 Plain Text
  80. Duration                                 : 2 h 19 min
  81. Bit rate                                 : 59 b/s
  82. Count of elements                        : 2059
  83. Stream size                              : 60.4 KiB (0%)
  84. Title                                    : English (SDH SRT)
  85. Language                                 : English
  86. Default                                  : No
  87. Forced                                   : No

  88. Text #4
  89. ID                                       : 6
  90. Format                                   : PGS
  91. Muxing mode                              : zlib
  92. Codec ID                                 : S_HDMV/PGS
  93. Codec ID/Info                            : Picture based subtitle format used on BDs/HD-DVDs
  94. Duration                                 : 38 min 16 s
  95. Bit rate                                 : 163 b/s
  96. Count of elements                        : 7
  97. Stream size                              : 45.9 KiB (0%)
  98. Title                                    : English (FORCED)
  99. Language                                 : English
  100. Default                                  : No
  101. Forced                                   : No

  102. Text #5
  103. ID                                       : 7
  104. Format                                   : PGS
  105. Muxing mode                              : zlib
  106. Codec ID                                 : S_HDMV/PGS
  107. Codec ID/Info                            : Picture based subtitle format used on BDs/HD-DVDs
  108. Duration                                 : 2 h 19 min
  109. Bit rate                                 : 27.4 kb/s
  110. Count of elements                        : 2678
  111. Stream size                              : 27.4 MiB (0%)
  112. Title                                    : English (SDH)
  113. Language                                 : English
  114. Default                                  : No
  115. Forced                                   : No

  116. Menu
  117. 00:00:00.000                             : en:Chapter 01
  118. 00:14:01.125                             : en:Chapter 02
  119. 00:27:03.917                             : en:Chapter 03
  120. 00:42:20.000                             : en:Chapter 04
  121. 01:01:32.042                             : en:Chapter 05
  122. 01:13:56.875                             : en:Chapter 06
  123. 01:24:30.583                             : en:Chapter 07
  124. 01:38:07.625                             : en:Chapter 08
  125. 01:52:26.250                             : en:Chapter 09
  126. 02:04:19.000                             : en:Chapter 10
  127. 02:14:08.000                             : en:Chapter 11
复制代码





                                       
                                       

                                       
                                       
                                       




回复

使用道具 举报

蓝光币
148
发表于 2022-1-29 09:52:58 | 显示全部楼层

楼主太厉害了!楼主,电影应该很好看我觉得蓝光电影网真是个好地方!
回复 支持 反对

使用道具 举报

蓝光币
0
发表于 2022-1-29 18:11:35 | 显示全部楼层
楼主太厉害了!楼主,电影应该很好看我觉得蓝光电影网真是个好地方!
回复 支持 反对

使用道具 举报

蓝光币
166
发表于 2022-1-29 19:36:42 | 显示全部楼层
楼主发贴辛苦了,谢谢楼主分享!我觉得蓝光电影网是注册对了!
回复 支持 反对

使用道具 举报

懒得打字嘛,点击右侧快捷回复 【右侧内容,后台自定义】
您需要登录后才可以回帖 登录 | 立即加入

本版积分规则

Archiver|小黑屋| 蓝光电影网 |网站地图

Copyright © 2021 Comsenz Inc. Powered by 蓝光电影网

蓝光电影网

本站内容由用户自主分享和转载自互联网,转载目的在于传递更多信息,并不代表本网赞同其观点和对其真实性负责。

如有侵权、违反国家法律政策行为,请联系我们,我们会第一时间及时清除和处理!

举报反馈邮箱:[email protected]

快速回复 返回顶部 返回列表