找回密码

蓝光电影网

查看: 343|回复: 1

[喜剧] 超能敢死队 Ghostbusters.Afterlife.2021.1080p.BluRay.REMUX.AVC.DTS-HD.MA.TrueHD.7.1.Atmos-FGT 35.14GB

[复制链接]
蓝光币
815
发表于 2022-1-29 08:18:32 | 显示全部楼层 |阅读模式


◎译  名 超能敢死队 / 捉鬼敢死队:魅来天下(港) / 魔鬼克星 未来世(台) / 捉鬼敢死队:来世 / 捉鬼敢死队:来生 / 新捉鬼敢死队 / 捉鬼敢死队3 / 锈蚀之城 / Ghostbusters 2020 / Rust City
◎片  名 Ghostbusters: Afterlife
◎年  代 2021
◎产  地 加拿大 / 美国
◎类  别 笑剧 / 奇异 / 冒险
◎语  言 英语
◎上映日期 2021-11-19(美国)
◎IMDb链接 https://www.imdb.com/title/tt4513678/
◎豆瓣评分 6.1/10 (8144人评价)
◎豆瓣链接 https://movie.douban.com/subject/26838236/
◎片  长 124分钟
◎导  演 贾森·雷特曼 Jason Reitman (id:1027257)
◎编  剧 吉尔·克兰 Gil Kenan (id:1028045)
       贾森·雷特曼 Jason Reitman (id:1027257)
       丹·艾克罗伊德 Dan Aykroyd (id:1010562)
       哈罗德·雷米斯 Harold Ramis (id:1040554)
◎演  员 菲恩·伍法德 Finn Wolfhard (id:1359349)
       麦肯娜·格瑞丝 Mckenna Grace (id:1340538)
       保罗·路德 Paul Rudd (id:1002667)
       凯莉·库恩 Carrie Coon (id:1342808)
        洛根金  Logan Kim (id:1464309)
       塞莱斯特·奥康纳 Celeste O'Connor (id:1447216)
       安妮·波茨 Annie Potts (id:1041111)
       比尔·默瑞 Bill Murray (id:1054508)
       丹·艾克罗伊德 Dan Aykroyd (id:1010562)
       埃涅·赫德森 Ernie Hudson (id:1036444)
       西格妮·韦弗 Sigourney Weaver (id:1053569)
       鲍勃·冈顿 Bob Gunton (id:1041179)
       J·K·西蒙斯 J.K. Simmons (id:1147911)
       肖恩·西沃德 Shawn Seward (id:1464310)
       比利·布莱克 Billy Bryk  (id:1464311)
       悉尼·梅·迪亚兹 Sydney Mae Diaz (id:1432436)
       博基姆·伍德拜因 Bokeem Woodbine (id:1000287)
       乔什·加德 Josh Gad (id:1305235)
       索瑞·安达斯鲁 Shohreh Aghdashloo (id:1044953)
       奥利弗·库珀 Oliver Cooper (id:1320117)
       奥利维亚·王尔德 Olivia Wilde (id:1031795)
       谢尔碧·杨 Shelby Young (id:1198892)
       丹·艾克罗伊德 Dan Aykroyd (id:1010562)
       伊万·雷特曼 Ivan Reitman (id:1041182)
       罗伯·西蒙森 Rob Simonsen (id:1033218)
       埃里克·斯蒂尔伯格 Eric Steelberg (id:1000832)
       达娜·E·格劳伯曼 Dana E. Glauberman (id:1284961)
       约翰·帕帕席德拉 John Papsidera (id:1293922)
       弗朗索瓦·奥杜伊 Fran?ois Audouy (id:1019672)
       比尔·艾夫斯 Bill Ives (id:1287436)
       斯科特·米汉 Scott Meehan (id:1291754)
       汤姆·雷塔 Tom Reta (id:1295480)
       保罗·赫利 Paul Healy (id:1286314)
       彼得·兰多 Peter Lando (id:1289365)
       丹尼·格利克尔 Danny Glicker (id:1284971)
◎简  介

  一对年幼的兄妹跟从母亲来到了乡下,但是这个偏僻安好的小镇,却发生了连续串奇异的怪事,一位宣称研讨超自然现象的奥秘男人静静现身。
  1. Video
  2. ID                                       : 1
  3. ID in the original source medium         : 4113 (0x1011)
  4. Format                                   : AVC
  5. Format/Info                              : Advanced Video Codec
  6. Format profile                           : [email protected]
  7. Format settings                          : CABAC / 2 Ref Frames
  8. Format settings, CABAC                   : Yes
  9. Format settings, Reference frames        : 2 frames
  10. Format settings, GOP                     : M=1, N=10
  11. Codec ID                                 : V_MPEG4/ISO/AVC
  12. Duration                                 : 2 h 3 min
  13. Bit rate mode                            : Variable
  14. Bit rate                                 : 26.9 Mb/s
  15. Width                                    : 1 920 pixels
  16. Height                                   : 1 080 pixels
  17. Display aspect ratio                     : 16:9
  18. Frame rate mode                          : Constant
  19. Frame rate                               : 23.976 (24000/1001/189150) FPS
  20. Color space                              : YUV
  21. Chroma subsampling                       : 4:2:0
  22. Bit depth                                : 8 bits
  23. Scan type                                : Progressive
  24. Bits/(Pixel*Frame)                       : 0.541
  25. Stream size                              : 23.3 GiB (66%)
  26. Language                                 : English
  27. Default                                  : No
  28. Forced                                   : No
  29. Original source medium                   : Blu-ray
  30. Audio #1
  31. ID                                       : 2
  32. ID in the original source medium         : 4352 (0x1100)
  33. Format                                   : MLP FBA 16-ch
  34. Format/Info                              : Meridian Lossless Packing FBA with 16-channel presentation
  35. Commercial name                          : Dolby TrueHD with Dolby Atmos
  36. Codec ID                                 : A_TRUEHD
  37. Duration                                 : 2 h 3 min
  38. Bit rate mode                            : Variable
  39. Bit rate                                 : 3 981 kb/s
  40. Maximum bit rate                         : 7 494 kb/s
  41. Channel(s)                               : 8 channels
  42. Channel layout                           : L R C LFE Ls Rs Lb Rb
  43. Sampling rate                            : 48.0 kHz
  44. Frame rate                               : 1 200.000 FPS (40 SPF)
  45. Bit depth                                : 24 bits
  46. Compression mode                         : Lossless
  47. Stream size                              : 3.45 GiB (10%)
  48. Title                                    : TrueHD 7.1 Atmos
  49. Language                                 : English
  50. Default                                  : Yes
  51. Forced                                   : No
  52. Original source medium                   : Blu-ray
  53. Number of dynamic objects                : 11
  54. Bed channel count                        : 1 channel
  55. Bed channel configuration                : LFE
  56. Audio #2
  57. ID                                       : 3
  58. Format                                   : DTS XLL
  59. Format/Info                              : Digital Theater Systems
  60. Commercial name                          : DTS-HD Master Audio
  61. Codec ID                                 : A_DTS
  62. Duration                                 : 2 h 3 min
  63. Bit rate mode                            : Variable
  64. Bit rate                                 : 4 036 kb/s
  65. Channel(s)                               : 8 channels
  66. Channel layout                           : C L R LFE Lb Rb Lss Rss
  67. Sampling rate                            : 48.0 kHz
  68. Frame rate                               : 93.750 FPS (512 SPF)
  69. Bit depth                                : 24 bits
  70. Compression mode                         : Lossless
  71. Stream size                              : 3.49 GiB (10%)
  72. Title                                    : DTS-HD MA 7.1
  73. Language                                 : English
  74. Default                                  : No
  75. Forced                                   : No
  76. Audio #3
  77. ID                                       : 4
  78. ID in the original source medium         : 4352 (0x1100)
  79. Format                                   : AC-3
  80. Format/Info                              : Audio Coding 3
  81. Commercial name                          : Dolby Digital
  82. Codec ID                                 : A_AC3
  83. Duration                                 : 2 h 3 min
  84. Bit rate mode                            : Constant
  85. Bit rate                                 : 640 kb/s
  86. Channel(s)                               : 6 channels
  87. Channel layout                           : L R C LFE Ls Rs
  88. Sampling rate                            : 48.0 kHz
  89. Frame rate                               : 31.250 FPS (1536 SPF)
  90. Compression mode                         : Lossy
  91. Stream size                              : 567 MiB (2%)
  92. Title                                    : DD 5.1
  93. Language                                 : English
  94. Service kind                             : Complete Main
  95. Default                                  : No
  96. Forced                                   : No
  97. Original source medium                   : Blu-ray
  98. Audio #4
  99. ID                                       : 5
  100. ID in the original source medium         : 4353 (0x1101)
  101. Format                                   : AC-3
  102. Format/Info                              : Audio Coding 3
  103. Commercial name                          : Dolby Digital
  104. Codec ID                                 : A_AC3
  105. Duration                                 : 2 h 3 min
  106. Bit rate mode                            : Constant
  107. Bit rate                                 : 640 kb/s
  108. Channel(s)                               : 6 channels
  109. Channel layout                           : L R C LFE Ls Rs
  110. Sampling rate                            : 48.0 kHz
  111. Frame rate                               : 31.250 FPS (1536 SPF)
  112. Compression mode                         : Lossy
  113. Stream size                              : 567 MiB (2%)
  114. Title                                    : DD 5.1
  115. Language                                 : English
  116. Service kind                             : Complete Main
  117. Default                                  : No
  118. Forced                                   : No
  119. Original source medium                   : Blu-ray
  120. Audio #5
  121. ID                                       : 6
  122. ID in the original source medium         : 4354 (0x1102)
  123. Format                                   : AC-3
  124. Format/Info                              : Audio Coding 3
  125. Commercial name                          : Dolby Digital
  126. Codec ID                                 : A_AC3
  127. Duration                                 : 2 h 3 min
  128. Bit rate mode                            : Constant
  129. Bit rate                                 : 640 kb/s
  130. Channel(s)                               : 6 channels
  131. Channel layout                           : L R C LFE Ls Rs
  132. Sampling rate                            : 48.0 kHz
  133. Frame rate                               : 31.250 FPS (1536 SPF)
  134. Compression mode                         : Lossy
  135. Stream size                              : 567 MiB (2%)
  136. Title                                    : DD 5.1
  137. Language                                 : Czech
  138. Service kind                             : Complete Main
  139. Default                                  : No
  140. Forced                                   : No
  141. Original source medium                   : Blu-ray
  142. Audio #6
  143. ID                                       : 7
  144. ID in the original source medium         : 4355 (0x1103)
  145. Format                                   : AC-3
  146. Format/Info                              : Audio Coding 3
  147. Commercial name                          : Dolby Digital
  148. Codec ID                                 : A_AC3
  149. Duration                                 : 2 h 3 min
  150. Bit rate mode                            : Constant
  151. Bit rate                                 : 640 kb/s
  152. Channel(s)                               : 6 channels
  153. Channel layout                           : L R C LFE Ls Rs
  154. Sampling rate                            : 48.0 kHz
  155. Frame rate                               : 31.250 FPS (1536 SPF)
  156. Compression mode                         : Lossy
  157. Stream size                              : 567 MiB (2%)
  158. Title                                    : DD 5.1
  159. Language                                 : Hungarian
  160. Service kind                             : Complete Main
  161. Default                                  : No
  162. Forced                                   : No
  163. Original source medium                   : Blu-ray
  164. Audio #7
  165. ID                                       : 8
  166. ID in the original source medium         : 4356 (0x1104)
  167. Format                                   : DTS XLL
  168. Format/Info                              : Digital Theater Systems
  169. Commercial name                          : DTS-HD Master Audio
  170. Codec ID                                 : A_DTS
  171. Duration                                 : 2 h 3 min
  172. Bit rate mode                            : Variable
  173. Bit rate                                 : 2 213 kb/s
  174. Channel(s)                               : 6 channels
  175. Channel layout                           : C L R Ls Rs LFE
  176. Sampling rate                            : 48.0 kHz
  177. Frame rate                               : 93.750 FPS (512 SPF)
  178. Bit depth                                : 16 bits
  179. Compression mode                         : Lossless
  180. Stream size                              : 1.92 GiB (5%)
  181. Title                                    : DTS-HD MA 5.1
  182. Language                                 : Italian
  183. Default                                  : No
  184. Forced                                   : No
  185. Original source medium                   : Blu-ray
  186. Audio #8
  187. ID                                       : 9
  188. ID in the original source medium         : 4357 (0x1105)
  189. Format                                   : AC-3
  190. Format/Info                              : Audio Coding 3
  191. Commercial name                          : Dolby Digital
  192. Codec ID                                 : A_AC3
  193. Duration                                 : 2 h 3 min
  194. Bit rate mode                            : Constant
  195. Bit rate                                 : 640 kb/s
  196. Channel(s)                               : 6 channels
  197. Channel layout                           : L R C LFE Ls Rs
  198. Sampling rate                            : 48.0 kHz
  199. Frame rate                               : 31.250 FPS (1536 SPF)
  200. Compression mode                         : Lossy
  201. Stream size                              : 567 MiB (2%)
  202. Title                                    : DD 5.1
  203. Language                                 : Polish
  204. Service kind                             : Complete Main
  205. Default                                  : No
  206. Forced                                   : No
  207. Original source medium                   : Blu-ray
  208. Text #1
  209. ID                                       : 10
  210. Format                                   : UTF-8
  211. Codec ID                                 : S_TEXT/UTF8
  212. Codec ID/Info                            : UTF-8 Plain Text
  213. Duration                                 : 1 h 58 min
  214. Bit rate                                 : 43 b/s
  215. Count of elements                        : 1202
  216. Stream size                              : 37.2 KiB (0%)
  217. Language                                 : English
  218. Default                                  : No
  219. Forced                                   : No
  220. Text #2
  221. ID                                       : 11
  222. Format                                   : UTF-8
  223. Codec ID                                 : S_TEXT/UTF8
  224. Codec ID/Info                            : UTF-8 Plain Text
  225. Duration                                 : 2 h 3 min
  226. Bit rate                                 : 45 b/s
  227. Count of elements                        : 1359
  228. Stream size                              : 40.8 KiB (0%)
  229. Language                                 : English
  230. Default                                  : No
  231. Forced                                   : No
  232. Text #3
  233. ID                                       : 12
  234. ID in the original source medium         : 4608 (0x1200)
  235. Format                                   : PGS
  236. Muxing mode                              : zlib
  237. Codec ID                                 : S_HDMV/PGS
  238. Codec ID/Info                            : Picture based subtitle format used on BDs/HD-DVDs
  239. Duration                                 : 1 h 58 min
  240. Bit rate                                 : 24.9 kb/s
  241. Count of elements                        : 2372
  242. Stream size                              : 21.0 MiB (0%)
  243. Language                                 : English
  244. Default                                  : No
  245. Forced                                   : No
  246. Original source medium                   : Blu-ray
  247. Text #4
  248. ID                                       : 13
  249. ID in the original source medium         : 4609 (0x1201)
  250. Format                                   : PGS
  251. Muxing mode                              : zlib
  252. Codec ID                                 : S_HDMV/PGS
  253. Codec ID/Info                            : Picture based subtitle format used on BDs/HD-DVDs
  254. Duration                                 : 2 h 3 min
  255. Bit rate                                 : 28.7 kb/s
  256. Count of elements                        : 2884
  257. Stream size                              : 25.4 MiB (0%)
  258. Title                                    : SDH
  259. Language                                 : English
  260. Default                                  : No
  261. Forced                                   : No
  262. Original source medium                   : Blu-ray
  263. Text #5
  264. ID                                       : 14
  265. ID in the original source medium         : 4610 (0x1202)
  266. Format                                   : PGS
  267. Muxing mode                              : zlib
  268. Codec ID                                 : S_HDMV/PGS
  269. Codec ID/Info                            : Picture based subtitle format used on BDs/HD-DVDs
  270. Duration                                 : 2 h 2 min
  271. Bit rate                                 : 15.4 kb/s
  272. Count of elements                        : 2408
  273. Stream size                              : 13.5 MiB (0%)
  274. Language                                 : Arabic
  275. Default                                  : No
  276. Forced                                   : No
  277. Original source medium                   : Blu-ray
  278. Text #6
  279. ID                                       : 15
  280. ID in the original source medium         : 4611 (0x1203)
  281. Format                                   : PGS
  282. Muxing mode                              : zlib
  283. Codec ID                                 : S_HDMV/PGS
  284. Codec ID/Info                            : Picture based subtitle format used on BDs/HD-DVDs
  285. Duration                                 : 2 h 2 min
  286. Bit rate                                 : 22.1 kb/s
  287. Count of elements                        : 2412
  288. Stream size                              : 19.4 MiB (0%)
  289. Language                                 : Bulgarian
  290. Default                                  : No
  291. Forced                                   : No
  292. Original source medium                   : Blu-ray
  293. Text #7
  294. ID                                       : 16
  295. ID in the original source medium         : 4612 (0x1204)
  296. Format                                   : PGS
  297. Muxing mode                              : zlib
  298. Codec ID                                 : S_HDMV/PGS
  299. Codec ID/Info                            : Picture based subtitle format used on BDs/HD-DVDs
  300. Duration                                 : 2 h 2 min
  301. Bit rate                                 : 21.2 kb/s
  302. Count of elements                        : 2402
  303. Stream size                              : 18.6 MiB (0%)
  304. Language                                 : Croatian
  305. Default                                  : No
  306. Forced                                   : No
  307. Original source medium                   : Blu-ray
  308. Text #8
  309. ID                                       : 17
  310. ID in the original source medium         : 4613 (0x1205)
  311. Format                                   : PGS
  312. Muxing mode                              : zlib
  313. Codec ID                                 : S_HDMV/PGS
  314. Codec ID/Info                            : Picture based subtitle format used on BDs/HD-DVDs
  315. Duration                                 : 2 h 2 min
  316. Bit rate                                 : 21.0 kb/s
  317. Count of elements                        : 2370
  318. Stream size                              : 18.4 MiB (0%)
  319. Language                                 : Czech
  320. Default                                  : No
  321. Forced                                   : No
  322. Original source medium                   : Blu-ray
  323. Text #9
  324. ID                                       : 18
  325. ID in the original source medium         : 4614 (0x1206)
  326. Format                                   : PGS
  327. Muxing mode                              : zlib
  328. Codec ID                                 : S_HDMV/PGS
  329. Codec ID/Info                            : Picture based subtitle format used on BDs/HD-DVDs
  330. Duration                                 : 2 h 2 min
  331. Bit rate                                 : 23.6 kb/s
  332. Count of elements                        : 2399
  333. Stream size                              : 20.7 MiB (0%)
  334. Language                                 : Greek
  335. Default                                  : No
  336. Forced                                   : No
  337. Original source medium                   : Blu-ray
  338. Text #10
  339. ID                                       : 19
  340. ID in the original source medium         : 4615 (0x1207)
  341. Format                                   : PGS
  342. Muxing mode                              : zlib
  343. Codec ID                                 : S_HDMV/PGS
  344. Codec ID/Info                            : Picture based subtitle format used on BDs/HD-DVDs
  345. Duration                                 : 2 h 2 min
  346. Bit rate                                 : 17.7 kb/s
  347. Count of elements                        : 2524
  348. Stream size                              : 15.5 MiB (0%)
  349. Language                                 : Hebrew
  350. Default                                  : No
  351. Forced                                   : No
  352. Original source medium                   : Blu-ray
  353. Text #11
  354. ID                                       : 20
  355. ID in the original source medium         : 4616 (0x1208)
  356. Format                                   : PGS
  357. Muxing mode                              : zlib
  358. Codec ID                                 : S_HDMV/PGS
  359. Codec ID/Info                            : Picture based subtitle format used on BDs/HD-DVDs
  360. Duration                                 : 2 h 2 min
  361. Bit rate                                 : 23.1 kb/s
  362. Count of elements                        : 2420
  363. Stream size                              : 20.2 MiB (0%)
  364. Language                                 : Hungarian
  365. Default                                  : No
  366. Forced                                   : No
  367. Original source medium                   : Blu-ray
  368. Text #12
  369. ID                                       : 21
  370. ID in the original source medium         : 4617 (0x1209)
  371. Format                                   : PGS
  372. Muxing mode                              : zlib
  373. Codec ID                                 : S_HDMV/PGS
  374. Codec ID/Info                            : Picture based subtitle format used on BDs/HD-DVDs
  375. Duration                                 : 2 h 2 min
  376. Bit rate                                 : 22.6 kb/s
  377. Count of elements                        : 2274
  378. Stream size                              : 19.8 MiB (0%)
  379. Language                                 : Icelandic
  380. Default                                  : No
  381. Forced                                   : No
  382. Original source medium                   : Blu-ray
  383. Text #13
  384. ID                                       : 22
  385. ID in the original source medium         : 4618 (0x120A)
  386. Format                                   : PGS
  387. Muxing mode                              : zlib
  388. Codec ID                                 : S_HDMV/PGS
  389. Codec ID/Info                            : Picture based subtitle format used on BDs/HD-DVDs
  390. Duration                                 : 2 h 2 min
  391. Bit rate                                 : 24.0 kb/s
  392. Count of elements                        : 2366
  393. Stream size                              : 21.0 MiB (0%)
  394. Language                                 : Italian
  395. Default                                  : No
  396. Forced                                   : No
  397. Original source medium                   : Blu-ray
  398. Text #14
  399. ID                                       : 23
  400. ID in the original source medium         : 4618 (0x120A)
  401. Format                                   : PGS
  402. Muxing mode                              : zlib
  403. Codec ID                                 : S_HDMV/PGS
  404. Codec ID/Info                            : Picture based subtitle format used on BDs/HD-DVDs
  405. Duration                                 : 1 h 55 min
  406. Bit rate                                 : 127 b/s
  407. Count of elements                        : 12
  408. Stream size                              : 108 KiB (0%)
  409. Language                                 : Italian
  410. Default                                  : No
  411. Forced                                   : No
  412. Original source medium                   : Blu-ray
  413. Text #15
  414. ID                                       : 24
  415. ID in the original source medium         : 4619 (0x120B)
  416. Format                                   : PGS
  417. Muxing mode                              : zlib
  418. Codec ID                                 : S_HDMV/PGS
  419. Codec ID/Info                            : Picture based subtitle format used on BDs/HD-DVDs
  420. Duration                                 : 2 h 2 min
  421. Bit rate                                 : 20.7 kb/s
  422. Count of elements                        : 2352
  423. Stream size                              : 18.1 MiB (0%)
  424. Language                                 : Polish
  425. Default                                  : No
  426. Forced                                   : No
  427. Original source medium                   : Blu-ray
  428. Text #16
  429. ID                                       : 25
  430. ID in the original source medium         : 4620 (0x120C)
  431. Format                                   : PGS
  432. Muxing mode                              : zlib
  433. Codec ID                                 : S_HDMV/PGS
  434. Codec ID/Info                            : Picture based subtitle format used on BDs/HD-DVDs
  435. Duration                                 : 2 h 2 min
  436. Bit rate                                 : 23.2 kb/s
  437. Count of elements                        : 2316
  438. Stream size                              : 20.3 MiB (0%)
  439. Language                                 : Portuguese
  440. Default                                  : No
  441. Forced                                   : No
  442. Original source medium                   : Blu-ray
  443. Text #17
  444. ID                                       : 26
  445. ID in the original source medium         : 4621 (0x120D)
  446. Format                                   : PGS
  447. Muxing mode                              : zlib
  448. Codec ID                                 : S_HDMV/PGS
  449. Codec ID/Info                            : Picture based subtitle format used on BDs/HD-DVDs
  450. Duration                                 : 2 h 2 min
  451. Bit rate                                 : 22.8 kb/s
  452. Count of elements                        : 2340
  453. Stream size                              : 20.0 MiB (0%)
  454. Language                                 : Romanian
  455. Default                                  : No
  456. Forced                                   : No
  457. Original source medium                   : Blu-ray
  458. Text #18
  459. ID                                       : 27
  460. ID in the original source medium         : 4622 (0x120E)
  461. Format                                   : PGS
  462. Muxing mode                              : zlib
  463. Codec ID                                 : S_HDMV/PGS
  464. Codec ID/Info                            : Picture based subtitle format used on BDs/HD-DVDs
  465. Duration                                 : 2 h 2 min
  466. Bit rate                                 : 22.4 kb/s
  467. Count of elements                        : 2398
  468. Stream size                              : 19.7 MiB (0%)
  469. Language                                 : Serbian
  470. Default                                  : No
  471. Forced                                   : No
  472. Original source medium                   : Blu-ray
  473. Text #19
  474. ID                                       : 28
  475. ID in the original source medium         : 4623 (0x120F)
  476. Format                                   : PGS
  477. Muxing mode                              : zlib
  478. Codec ID                                 : S_HDMV/PGS
  479. Codec ID/Info                            : Picture based subtitle format used on BDs/HD-DVDs
  480. Duration                                 : 2 h 2 min
  481. Bit rate                                 : 20.0 kb/s
  482. Count of elements                        : 2380
  483. Stream size                              : 17.6 MiB (0%)
  484. Language                                 : Slovak
  485. Default                                  : No
  486. Forced                                   : No
  487. Original source medium                   : Blu-ray
  488. Text #20
  489. ID                                       : 29
  490. ID in the original source medium         : 4624 (0x1210)
  491. Format                                   : PGS
  492. Muxing mode                              : zlib
  493. Codec ID                                 : S_HDMV/PGS
  494. Codec ID/Info                            : Picture based subtitle format used on BDs/HD-DVDs
  495. Duration                                 : 2 h 2 min
  496. Bit rate                                 : 19.4 kb/s
  497. Count of elements                        : 2029
  498. Stream size                              : 17.0 MiB (0%)
  499. Language                                 : Slovenian
  500. Default                                  : No
  501. Forced                                   : No
  502. Original source medium                   : Blu-ray
  503. Menu
  504. 00:00:00.000                             : en:Chapter 01
  505. 00:05:07.598                             : en:Chapter 02
  506. 00:12:13.649                             : en:Chapter 03
  507. 00:19:59.615                             : en:Chapter 04
  508. 00:26:29.254                             : en:Chapter 05
  509. 00:32:15.683                             : en:Chapter 06
  510. 00:38:30.725                             : en:Chapter 07
  511. 00:45:47.494                             : en:Chapter 08
  512. 00:52:57.090                             : en:Chapter 09
  513. 00:57:15.765                             : en:Chapter 10
  514. 01:05:06.903                             : en:Chapter 11
  515. 01:11:38.669                             : en:Chapter 12
  516. 01:18:24.282                             : en:Chapter 13
  517. 01:24:32.192                             : en:Chapter 14
  518. 01:31:39.994                             : en:Chapter 15
  519. 01:43:06.221                             : en:Chapter 16
复制代码







                                       
                                       

                                       
                                       
                                       




回复

使用道具 举报

蓝光币
1287
发表于 2022-2-3 16:05:04 | 显示全部楼层

楼主太厉害了!楼主,电影应该很好看我觉得蓝光电影网真是个好地方!
回复 支持 反对

使用道具 举报

懒得打字嘛,点击右侧快捷回复 【右侧内容,后台自定义】
您需要登录后才可以回帖 登录 | 立即加入

本版积分规则

Archiver|小黑屋| 蓝光电影网 |网站地图

Copyright © 2021 Comsenz Inc. Powered by 蓝光电影网

蓝光电影网

本站内容由用户自主分享和转载自互联网,转载目的在于传递更多信息,并不代表本网赞同其观点和对其真实性负责。

如有侵权、违反国家法律政策行为,请联系我们,我们会第一时间及时清除和处理!

举报反馈邮箱:[email protected]

快速回复 返回顶部 返回列表