找回密码

蓝光电影网

查看: 137|回复: 0

[剧情] 瀑布 The.Falls.2021.CHINESE.1080p.NF.WEBRip.DDP5.1.x264-TEPES 3.29GB

[复制链接]
蓝光币
815
发表于 2022-1-29 17:44:38 | 显示全部楼层 |阅读模式


◎译  名 瀑布 / The Falls
◎年  代 2021
◎产  地 中国台湾
◎类  别 剧情
◎语  言 汉语普通话
◎上映日期 2021-10-29(中国台湾) / 2021-09-06(威尼斯电影节) / 2021-09-13(多伦多国际电影节)
◎IMDb链接 https://www.imdb.com/title/tt15119668/
◎豆瓣评分 6.5/10 (448人评价)
◎豆瓣链接 https://movie.douban.com/subject/35242938/
◎片  长 129分钟
◎导  演 钟孟宏 Mong-Hong Chung (id:1312987)
◎编  剧 钟孟宏 Mong-Hong Chung (id:1312987)
       张耀升 Yao-sheng Chang (id:1365734)
◎演  员 贾静雯 Alyssa Chia (id:1029332)
       王净 Gingle Wang (id:1387713)
       李李仁 Liren Li (id:1016537)
       魏如萱 Waa Wei (id:1324573)
       陈以文 Yiwen Chen (id:1280584)
       刘冠廷 Kuan-ting Liu (id:1377282)
       卢律铭 Lüming Lu (id:1401859)
       钟孟宏 Mong-Hong Chung (id:1312987)
       赵思豪 Shih-Hao Chao (id:1331249)
       李志纬 Aben Lee (id:1446048)
       谢冈达 Kang-Ta Hsieh (id:1462454)
◎简  介

  《瀑布》的故事灵感来自导演钟孟宏朋友发生的实在故事,以电影《瀑布》中层层暗喻与不停撞击两个女配角的故事为设想概念主轴,就有如海报中的草丛,徐徐延续着围绕这着母女,像是庇护他们又像是被团团困住。而她们背后的蓝色帏幕意味未完工且使人期待的未来,蓝色的基底又像是层层水幕,大量的水花如瀑布般向下坠落。
◎获奖情况 (共1项)
  第78届威尼斯电影节 (2021)
  地平线单元奖 最好影片(提名)
   └──钟孟宏 (id:1312987)
  1. Video
  2. ID                                       : 1
  3. Format                                   : AVC
  4. Format/Info                              : Advanced Video Codec
  5. Format profile                           : [email protected]
  6. Format settings                          : CABAC / 3 Ref Frames
  7. Format settings, CABAC                   : Yes
  8. Format settings, Reference frames        : 3 frames
  9. Codec ID                                 : V_MPEG4/ISO/AVC
  10. Duration                                 : 2 h 9 min
  11. Bit rate mode                            : Variable
  12. Bit rate                                 : 2 356 kb/s
  13. Nominal bit rate                         : 2 075 kb/s
  14. Maximum bit rate                         : 6 960 kb/s
  15. Width                                    : 1 920 pixels
  16. Height                                   : 1 080 pixels
  17. Display aspect ratio                     : 16:9
  18. Frame rate mode                          : Constant
  19. Frame rate                               : 24.000 FPS
  20. Color space                              : YUV
  21. Chroma subsampling                       : 4:2:0
  22. Bit depth                                : 8 bits
  23. Scan type                                : Progressive
  24. Bits/(Pixel*Frame)                       : 0.047
  25. Stream size                              : 2.13 GiB (65%)
  26. Writing library                          : x264 core 148 r2727 7d026e8
  27. Encoding settings                        : cabac=1 / ref=3 / deblock=1:0:0 / analyse=0x1:0x111 / me=umh / subme=10 / psy=1 / psy_rd=1.00:0.00 / mixed_ref=1 / me_range=24 / chroma_me=1 / trellis=2 / 8x8dct=0 / cqm=0 / deadzone=21,11 / fast_pskip=1 / chroma_qp_offset=-2 / threads=8 / lookahead_threads=1 / sliced_threads=0 / nr=0 / decimate=1 / interlaced=0 / bluray_compat=0 / stitchable=1 / constrained_intra=0 / bframes=2 / b_pyramid=0 / b_adapt=2 / b_bias=0 / direct=3 / weightb=1 / open_gop=0 / weightp=2 / keyint=250 / keyint_min=24 / scenecut=0 / intra_refresh=0 / rc_lookahead=48 / rc=2pass / mbtree=1 / bitrate=2075 / ratetol=1.0 / qcomp=0.50 / qpmin=6 / qpmax=51 / qpstep=4 / cplxblur=20.0 / qblur=0.5 / vbv_maxrate=6960 / vbv_bufsize=9280 / nal_hrd=vbr / filler=0 / ip_ratio=1.40 / aq=1:1.00
  28. Default                                  : Yes
  29. Forced                                   : No
  30. Audio #1
  31. ID                                       : 2
  32. Format                                   : E-AC-3
  33. Format/Info                              : Enhanced AC-3
  34. Commercial name                          : Dolby Digital Plus
  35. Codec ID                                 : A_EAC3
  36. Duration                                 : 2 h 9 min
  37. Bit rate mode                            : Constant
  38. Bit rate                                 : 640 kb/s
  39. Channel(s)                               : 6 channels
  40. Channel layout                           : L R C LFE Ls Rs
  41. Sampling rate                            : 48.0 kHz
  42. Frame rate                               : 31.250 FPS (1536 SPF)
  43. Compression mode                         : Lossy
  44. Stream size                              : 592 MiB (18%)
  45. Language                                 : Chinese
  46. Service kind                             : Complete Main
  47. Default                                  : Yes
  48. Forced                                   : No
  49. Audio #2
  50. ID                                       : 3
  51. Format                                   : E-AC-3
  52. Format/Info                              : Enhanced AC-3
  53. Commercial name                          : Dolby Digital Plus
  54. Codec ID                                 : A_EAC3
  55. Duration                                 : 2 h 9 min
  56. Bit rate mode                            : Constant
  57. Bit rate                                 : 640 kb/s
  58. Channel(s)                               : 6 channels
  59. Channel layout                           : L R C LFE Ls Rs
  60. Sampling rate                            : 48.0 kHz
  61. Frame rate                               : 31.250 FPS (1536 SPF)
  62. Compression mode                         : Lossy
  63. Stream size                              : 592 MiB (18%)
  64. Language                                 : English
  65. Service kind                             : Complete Main
  66. Default                                  : No
  67. Forced                                   : No
  68. Text #1
  69. ID                                       : 4
  70. Format                                   : UTF-8
  71. Codec ID                                 : S_TEXT/UTF8
  72. Codec ID/Info                            : UTF-8 Plain Text
  73. Duration                                 : 53 min 39 s
  74. Bit rate                                 : 1 b/s
  75. Count of elements                        : 21
  76. Stream size                              : 420 Bytes (0%)
  77. Title                                    : Traditional (Forced)
  78. Language                                 : Chinese
  79. Default                                  : Yes
  80. Forced                                   : Yes
  81. Text #2
  82. ID                                       : 5
  83. Format                                   : UTF-8
  84. Codec ID                                 : S_TEXT/UTF8
  85. Codec ID/Info                            : UTF-8 Plain Text
  86. Duration                                 : 2 h 8 min
  87. Bit rate                                 : 0 b/s
  88. Count of elements                        : 32
  89. Stream size                              : 806 Bytes (0%)
  90. Title                                    : Forced
  91. Language                                 : English
  92. Default                                  : No
  93. Forced                                   : No
  94. Text #3
  95. ID                                       : 6
  96. Format                                   : UTF-8
  97. Codec ID                                 : S_TEXT/UTF8
  98. Codec ID/Info                            : UTF-8 Plain Text
  99. Duration                                 : 2 h 2 min
  100. Bit rate                                 : 48 b/s
  101. Count of elements                        : 1639
  102. Stream size                              : 43.1 KiB (0%)
  103. Title                                    : Traditional
  104. Language                                 : Chinese
  105. Default                                  : No
  106. Forced                                   : No
  107. Text #4
  108. ID                                       : 7
  109. Format                                   : UTF-8
  110. Codec ID                                 : S_TEXT/UTF8
  111. Codec ID/Info                            : UTF-8 Plain Text
  112. Duration                                 : 2 h 8 min
  113. Bit rate                                 : 77 b/s
  114. Count of elements                        : 1496
  115. Stream size                              : 72.7 KiB (0%)
  116. Language                                 : Arabic
  117. Default                                  : No
  118. Forced                                   : No
  119. Text #5
  120. ID                                       : 8
  121. Format                                   : UTF-8
  122. Codec ID                                 : S_TEXT/UTF8
  123. Codec ID/Info                            : UTF-8 Plain Text
  124. Duration                                 : 2 h 8 min
  125. Bit rate                                 : 42 b/s
  126. Count of elements                        : 1493
  127. Stream size                              : 40.1 KiB (0%)
  128. Language                                 : Czech
  129. Default                                  : No
  130. Forced                                   : No
  131. Text #6
  132. ID                                       : 9
  133. Format                                   : UTF-8
  134. Codec ID                                 : S_TEXT/UTF8
  135. Codec ID/Info                            : UTF-8 Plain Text
  136. Duration                                 : 2 h 8 min
  137. Bit rate                                 : 43 b/s
  138. Count of elements                        : 1341
  139. Stream size                              : 41.2 KiB (0%)
  140. Language                                 : Danish
  141. Default                                  : No
  142. Forced                                   : No
  143. Text #7
  144. ID                                       : 10
  145. Format                                   : UTF-8
  146. Codec ID                                 : S_TEXT/UTF8
  147. Codec ID/Info                            : UTF-8 Plain Text
  148. Duration                                 : 2 h 3 min
  149. Bit rate                                 : 46 b/s
  150. Count of elements                        : 1328
  151. Stream size                              : 42.6 KiB (0%)
  152. Language                                 : German
  153. Default                                  : No
  154. Forced                                   : No
  155. Text #8
  156. ID                                       : 11
  157. Format                                   : UTF-8
  158. Codec ID                                 : S_TEXT/UTF8
  159. Codec ID/Info                            : UTF-8 Plain Text
  160. Duration                                 : 2 h 8 min
  161. Bit rate                                 : 70 b/s
  162. Count of elements                        : 1456
  163. Stream size                              : 66.6 KiB (0%)
  164. Language                                 : Greek
  165. Default                                  : No
  166. Forced                                   : No
  167. Text #9
  168. ID                                       : 12
  169. Format                                   : UTF-8
  170. Codec ID                                 : S_TEXT/UTF8
  171. Codec ID/Info                            : UTF-8 Plain Text
  172. Duration                                 : 2 h 8 min
  173. Bit rate                                 : 44 b/s
  174. Count of elements                        : 1520
  175. Stream size                              : 42.2 KiB (0%)
  176. Language                                 : English
  177. Default                                  : No
  178. Forced                                   : No
  179. Text #10
  180. ID                                       : 13
  181. Format                                   : UTF-8
  182. Codec ID                                 : S_TEXT/UTF8
  183. Codec ID/Info                            : UTF-8 Plain Text
  184. Duration                                 : 2 h 2 min
  185. Bit rate                                 : 53 b/s
  186. Count of elements                        : 1504
  187. Stream size                              : 47.7 KiB (0%)
  188. Language                                 : English
  189. Default                                  : No
  190. Forced                                   : No
  191. Text #11
  192. ID                                       : 14
  193. Format                                   : UTF-8
  194. Codec ID                                 : S_TEXT/UTF8
  195. Codec ID/Info                            : UTF-8 Plain Text
  196. Duration                                 : 2 h 8 min
  197. Bit rate                                 : 57 b/s
  198. Count of elements                        : 1719
  199. Stream size                              : 54.2 KiB (0%)
  200. Title                                    : SDH
  201. Language                                 : English
  202. Default                                  : No
  203. Forced                                   : No
  204. Text #12
  205. ID                                       : 15
  206. Format                                   : UTF-8
  207. Codec ID                                 : S_TEXT/UTF8
  208. Codec ID/Info                            : UTF-8 Plain Text
  209. Duration                                 : 2 h 8 min
  210. Bit rate                                 : 41 b/s
  211. Count of elements                        : 1494
  212. Stream size                              : 39.5 KiB (0%)
  213. Language                                 : Spanish
  214. Default                                  : No
  215. Forced                                   : No
  216. Text #13
  217. ID                                       : 16
  218. Format                                   : UTF-8
  219. Codec ID                                 : S_TEXT/UTF8
  220. Codec ID/Info                            : UTF-8 Plain Text
  221. Duration                                 : 2 h 8 min
  222. Bit rate                                 : 40 b/s
  223. Count of elements                        : 1471
  224. Stream size                              : 38.5 KiB (0%)
  225. Title                                    : European
  226. Language                                 : Spanish
  227. Default                                  : No
  228. Forced                                   : No
  229. Text #14
  230. ID                                       : 17
  231. Format                                   : UTF-8
  232. Codec ID                                 : S_TEXT/UTF8
  233. Codec ID/Info                            : UTF-8 Plain Text
  234. Duration                                 : 2 h 8 min
  235. Bit rate                                 : 41 b/s
  236. Count of elements                        : 1090
  237. Stream size                              : 38.9 KiB (0%)
  238. Language                                 : Finnish
  239. Default                                  : No
  240. Forced                                   : No
  241. Text #15
  242. ID                                       : 18
  243. Format                                   : UTF-8
  244. Codec ID                                 : S_TEXT/UTF8
  245. Codec ID/Info                            : UTF-8 Plain Text
  246. Duration                                 : 2 h 8 min
  247. Bit rate                                 : 41 b/s
  248. Count of elements                        : 1440
  249. Stream size                              : 39.4 KiB (0%)
  250. Language                                 : French
  251. Default                                  : No
  252. Forced                                   : No
  253. Text #16
  254. ID                                       : 19
  255. Format                                   : UTF-8
  256. Codec ID                                 : S_TEXT/UTF8
  257. Codec ID/Info                            : UTF-8 Plain Text
  258. Duration                                 : 2 h 8 min
  259. Bit rate                                 : 69 b/s
  260. Count of elements                        : 1475
  261. Stream size                              : 65.6 KiB (0%)
  262. Language                                 : Hebrew
  263. Default                                  : No
  264. Forced                                   : No
  265. Text #17
  266. ID                                       : 20
  267. Format                                   : UTF-8
  268. Codec ID                                 : S_TEXT/UTF8
  269. Codec ID/Info                            : UTF-8 Plain Text
  270. Duration                                 : 2 h 8 min
  271. Bit rate                                 : 39 b/s
  272. Count of elements                        : 1473
  273. Stream size                              : 37.3 KiB (0%)
  274. Language                                 : Croatian
  275. Default                                  : No
  276. Forced                                   : No
  277. Text #18
  278. ID                                       : 21
  279. Format                                   : UTF-8
  280. Codec ID                                 : S_TEXT/UTF8
  281. Codec ID/Info                            : UTF-8 Plain Text
  282. Duration                                 : 2 h 8 min
  283. Bit rate                                 : 42 b/s
  284. Count of elements                        : 1383
  285. Stream size                              : 39.7 KiB (0%)
  286. Language                                 : Hungarian
  287. Default                                  : No
  288. Forced                                   : No
  289. Text #19
  290. ID                                       : 22
  291. Format                                   : UTF-8
  292. Codec ID                                 : S_TEXT/UTF8
  293. Codec ID/Info                            : UTF-8 Plain Text
  294. Duration                                 : 2 h 8 min
  295. Bit rate                                 : 42 b/s
  296. Count of elements                        : 1383
  297. Stream size                              : 40.2 KiB (0%)
  298. Language                                 : Indonesian
  299. Default                                  : No
  300. Forced                                   : No
  301. Text #20
  302. ID                                       : 23
  303. Format                                   : UTF-8
  304. Codec ID                                 : S_TEXT/UTF8
  305. Codec ID/Info                            : UTF-8 Plain Text
  306. Duration                                 : 2 h 8 min
  307. Bit rate                                 : 44 b/s
  308. Count of elements                        : 1422
  309. Stream size                              : 42.3 KiB (0%)
  310. Language                                 : Italian
  311. Default                                  : No
  312. Forced                                   : No
  313. Text #21
  314. ID                                       : 24
  315. Format                                   : UTF-8
  316. Codec ID                                 : S_TEXT/UTF8
  317. Codec ID/Info                            : UTF-8 Plain Text
  318. Duration                                 : 2 h 3 min
  319. Bit rate                                 : 44 b/s
  320. Count of elements                        : 1373
  321. Stream size                              : 40.5 KiB (0%)
  322. Language                                 : Japanese
  323. Default                                  : No
  324. Forced                                   : No
  325. Text #22
  326. ID                                       : 25
  327. Format                                   : UTF-8
  328. Codec ID                                 : S_TEXT/UTF8
  329. Codec ID/Info                            : UTF-8 Plain Text
  330. Duration                                 : 2 h 8 min
  331. Bit rate                                 : 52 b/s
  332. Count of elements                        : 1518
  333. Stream size                              : 49.8 KiB (0%)
  334. Language                                 : Korean
  335. Default                                  : No
  336. Forced                                   : No
  337. Text #23
  338. ID                                       : 26
  339. Format                                   : UTF-8
  340. Codec ID                                 : S_TEXT/UTF8
  341. Codec ID/Info                            : UTF-8 Plain Text
  342. Duration                                 : 2 h 9 min
  343. Bit rate                                 : 41 b/s
  344. Count of elements                        : 1491
  345. Stream size                              : 39.3 KiB (0%)
  346. Language                                 : Malay
  347. Default                                  : No
  348. Forced                                   : No
  349. Text #24
  350. ID                                       : 27
  351. Format                                   : UTF-8
  352. Codec ID                                 : S_TEXT/UTF8
  353. Codec ID/Info                            : UTF-8 Plain Text
  354. Duration                                 : 2 h 8 min
  355. Bit rate                                 : 40 b/s
  356. Count of elements                        : 1157
  357. Stream size                              : 37.9 KiB (0%)
  358. Language                                 : Norwegian Bokmal
  359. Default                                  : No
  360. Forced                                   : No
  361. Text #25
  362. ID                                       : 28
  363. Format                                   : UTF-8
  364. Codec ID                                 : S_TEXT/UTF8
  365. Codec ID/Info                            : UTF-8 Plain Text
  366. Duration                                 : 2 h 3 min
  367. Bit rate                                 : 44 b/s
  368. Count of elements                        : 1280
  369. Stream size                              : 40.0 KiB (0%)
  370. Language                                 : Dutch
  371. Default                                  : No
  372. Forced                                   : No
  373. Text #26
  374. ID                                       : 29
  375. Format                                   : UTF-8
  376. Codec ID                                 : S_TEXT/UTF8
  377. Codec ID/Info                            : UTF-8 Plain Text
  378. Duration                                 : 2 h 8 min
  379. Bit rate                                 : 39 b/s
  380. Count of elements                        : 1463
  381. Stream size                              : 37.5 KiB (0%)
  382. Language                                 : Polish
  383. Default                                  : No
  384. Forced                                   : No
  385. Text #27
  386. ID                                       : 30
  387. Format                                   : UTF-8
  388. Codec ID                                 : S_TEXT/UTF8
  389. Codec ID/Info                            : UTF-8 Plain Text
  390. Duration                                 : 2 h 8 min
  391. Bit rate                                 : 43 b/s
  392. Count of elements                        : 1487
  393. Stream size                              : 41.1 KiB (0%)
  394. Language                                 : Portuguese
  395. Default                                  : No
  396. Forced                                   : No
  397. Text #28
  398. ID                                       : 31
  399. Format                                   : UTF-8
  400. Codec ID                                 : S_TEXT/UTF8
  401. Codec ID/Info                            : UTF-8 Plain Text
  402. Duration                                 : 2 h 8 min
  403. Bit rate                                 : 41 b/s
  404. Count of elements                        : 1472
  405. Stream size                              : 38.7 KiB (0%)
  406. Title                                    : Brazilian
  407. Language                                 : Portuguese
  408. Default                                  : No
  409. Forced                                   : No
  410. Text #29
  411. ID                                       : 32
  412. Format                                   : UTF-8
  413. Codec ID                                 : S_TEXT/UTF8
  414. Codec ID/Info                            : UTF-8 Plain Text
  415. Duration                                 : 2 h 8 min
  416. Bit rate                                 : 44 b/s
  417. Count of elements                        : 1493
  418. Stream size                              : 42.2 KiB (0%)
  419. Language                                 : Romanian
  420. Default                                  : No
  421. Forced                                   : No
  422. Text #30
  423. ID                                       : 33
  424. Format                                   : UTF-8
  425. Codec ID                                 : S_TEXT/UTF8
  426. Codec ID/Info                            : UTF-8 Plain Text
  427. Duration                                 : 2 h 8 min
  428. Bit rate                                 : 70 b/s
  429. Count of elements                        : 1486
  430. Stream size                              : 66.1 KiB (0%)
  431. Language                                 : Russian
  432. Default                                  : No
  433. Forced                                   : No
  434. Text #31
  435. ID                                       : 34
  436. Format                                   : UTF-8
  437. Codec ID                                 : S_TEXT/UTF8
  438. Codec ID/Info                            : UTF-8 Plain Text
  439. Duration                                 : 2 h 8 min
  440. Bit rate                                 : 42 b/s
  441. Count of elements                        : 1251
  442. Stream size                              : 40.0 KiB (0%)
  443. Language                                 : Swedish
  444. Default                                  : No
  445. Forced                                   : No
  446. Text #32
  447. ID                                       : 35
  448. Format                                   : UTF-8
  449. Codec ID                                 : S_TEXT/UTF8
  450. Codec ID/Info                            : UTF-8 Plain Text
  451. Duration                                 : 2 h 8 min
  452. Bit rate                                 : 118 b/s
  453. Count of elements                        : 1530
  454. Stream size                              : 111 KiB (0%)
  455. Language                                 : Thai
  456. Default                                  : No
  457. Forced                                   : No
  458. Text #33
  459. ID                                       : 36
  460. Format                                   : UTF-8
  461. Codec ID                                 : S_TEXT/UTF8
  462. Codec ID/Info                            : UTF-8 Plain Text
  463. Duration                                 : 2 h 8 min
  464. Bit rate                                 : 41 b/s
  465. Count of elements                        : 1447
  466. Stream size                              : 39.6 KiB (0%)
  467. Language                                 : Turkish
  468. Default                                  : No
  469. Forced                                   : No
  470. Text #34
  471. ID                                       : 37
  472. Format                                   : UTF-8
  473. Codec ID                                 : S_TEXT/UTF8
  474. Codec ID/Info                            : UTF-8 Plain Text
  475. Duration                                 : 2 h 8 min
  476. Bit rate                                 : 65 b/s
  477. Count of elements                        : 1511
  478. Stream size                              : 62.0 KiB (0%)
  479. Language                                 : Ukrainian
  480. Default                                  : No
  481. Forced                                   : No
  482. Text #35
  483. ID                                       : 38
  484. Format                                   : UTF-8
  485. Codec ID                                 : S_TEXT/UTF8
  486. Codec ID/Info                            : UTF-8 Plain Text
  487. Duration                                 : 2 h 8 min
  488. Bit rate                                 : 61 b/s
  489. Count of elements                        : 1423
  490. Stream size                              : 57.6 KiB (0%)
  491. Language                                 : Vietnamese
  492. Default                                  : No
  493. Forced                                   : No
  494. Text #36
  495. ID                                       : 39
  496. Format                                   : UTF-8
  497. Codec ID                                 : S_TEXT/UTF8
  498. Codec ID/Info                            : UTF-8 Plain Text
  499. Duration                                 : 2 h 8 min
  500. Bit rate                                 : 45 b/s
  501. Count of elements                        : 1523
  502. Stream size                              : 43.2 KiB (0%)
  503. Title                                    : Simplified
  504. Language                                 : Chinese
  505. Default                                  : No
  506. Forced                                   : No
复制代码






                                       
                                       

                                       
                                       
                                       




回复

使用道具 举报

懒得打字嘛,点击右侧快捷回复 【右侧内容,后台自定义】
您需要登录后才可以回帖 登录 | 立即加入

本版积分规则

Archiver|小黑屋| 蓝光电影网 |网站地图

Copyright © 2021 Comsenz Inc. Powered by 蓝光电影网

蓝光电影网

本站内容由用户自主分享和转载自互联网,转载目的在于传递更多信息,并不代表本网赞同其观点和对其真实性负责。

如有侵权、违反国家法律政策行为,请联系我们,我们会第一时间及时清除和处理!

举报反馈邮箱:[email protected]

快速回复 返回顶部 返回列表