找回密码

蓝光电影网

查看: 133|回复: 0

[剧情] 瀑布 The.Falls.2021.CHINESE.1080p.WEBRip.x264-VXT 2.47GB

[复制链接]
蓝光币
815
发表于 2022-1-29 19:33:53 | 显示全部楼层 |阅读模式


◎译  名 瀑布 / The Falls
◎年  代 2021
◎产  地 中国台湾
◎类  别 剧情
◎语  言 汉语普通话
◎上映日期 2021-10-29(中国台湾) / 2021-09-06(威尼斯电影节) / 2021-09-13(多伦多国际电影节)
◎IMDb链接 https://www.imdb.com/title/tt15119668/
◎豆瓣评分 6.5/10 (448人评价)
◎豆瓣链接 https://movie.douban.com/subject/35242938/
◎片  长 129分钟
◎导  演 钟孟宏 Mong-Hong Chung (id:1312987)
◎编  剧 钟孟宏 Mong-Hong Chung (id:1312987)
       张耀升 Yao-sheng Chang (id:1365734)
◎演  员 贾静雯 Alyssa Chia (id:1029332)
       王净 Gingle Wang (id:1387713)
       李李仁 Liren Li (id:1016537)
       魏如萱 Waa Wei (id:1324573)
       陈以文 Yiwen Chen (id:1280584)
       刘冠廷 Kuan-ting Liu (id:1377282)
       卢律铭 Lüming Lu (id:1401859)
       钟孟宏 Mong-Hong Chung (id:1312987)
       赵思豪 Shih-Hao Chao (id:1331249)
       李志纬 Aben Lee (id:1446048)
       谢冈达 Kang-Ta Hsieh (id:1462454)
◎简  介

  《瀑布》的故事灵感来自导演钟孟宏朋友发生的实在故事,以电影《瀑布》中层层暗喻与不停撞击两个女配角的故事为设想概念主轴,就有如海报中的草丛,徐徐延续着围绕这着母女,像是庇护他们又像是被团团困住。而她们背后的蓝色帏幕意味未完工且使人期待的未来,蓝色的基底又像是层层水幕,大量的水花如瀑布般向下坠落。
◎获奖情况 (共1项)
  第78届威尼斯电影节 (2021)
  地平线单元奖 最好影片(提名)
   └──钟孟宏 (id:1312987)
  1. Video
  2. ID                                       : 1
  3. Format                                   : AVC
  4. Format/Info                              : Advanced Video Codec
  5. Format profile                           : [email protected]
  6. Format settings                          : CABAC / 4 Ref Frames
  7. Format settings, CABAC                   : Yes
  8. Format settings, Reference frames        : 4 frames
  9. Codec ID                                 : avc1
  10. Codec ID/Info                            : Advanced Video Coding
  11. Duration                                 : 2 h 9 min
  12. Bit rate                                 : 2 500 kb/s
  13. Width                                    : 1 920 pixels
  14. Height                                   : 804 pixels
  15. Display aspect ratio                     : 2.40:1
  16. Frame rate mode                          : Constant
  17. Frame rate                               : 24.000 FPS
  18. Color space                              : YUV
  19. Chroma subsampling                       : 4:2:0
  20. Bit depth                                : 8 bits
  21. Scan type                                : Progressive
  22. Bits/(Pixel*Frame)                       : 0.067
  23. Stream size                              : 2.26 GiB (92%)
  24. Writing library                          : x264 core 152 r2851M ba24899
  25. Encoding settings                        : cabac=1 / ref=4 / deblock=1:-1:-1 / analyse=0x3:0x113 / me=umh / subme=9 / psy=1 / psy_rd=1.00:0.15 / mixed_ref=1 / me_range=24 / chroma_me=1 / trellis=2 / 8x8dct=1 / cqm=0 / deadzone=21,11 / fast_pskip=1 / chroma_qp_offset=-3 / threads=16 / lookahead_threads=4 / sliced_threads=0 / nr=0 / decimate=1 / interlaced=0 / bluray_compat=0 / constrained_intra=0 / bframes=3 / b_pyramid=2 / b_adapt=2 / b_bias=0 / direct=3 / weightb=1 / open_gop=0 / weightp=2 / keyint=250 / keyint_min=25 / scenecut=40 / intra_refresh=0 / rc_lookahead=50 / rc=2pass / mbtree=1 / bitrate=2500 / ratetol=1.0 / qcomp=0.60 / qpmin=0 / qpmax=69 / qpstep=4 / cplxblur=20.0 / qblur=0.5 / vbv_maxrate=31250 / vbv_bufsize=31250 / nal_hrd=none / filler=0 / ip_ratio=1.40 / aq=3:1.00
  26. Encoded date                             : UTC 2022-01-29 11:09:20
  27. Tagged date                              : UTC 2022-01-29 11:09:20
  28. Codec configuration box                  : avcC
  29. Audio
  30. ID                                       : 2
  31. Format                                   : AAC LC
  32. Format/Info                              : Advanced Audio Codec Low Complexity
  33. Codec ID                                 : mp4a-40-2
  34. Duration                                 : 2 h 9 min
  35. Duration_LastFrame                       : -11 ms
  36. Bit rate mode                            : Constant
  37. Bit rate                                 : 224 kb/s
  38. Channel(s)                               : 6 channels
  39. Channel layout                           : C L R Ls Rs LFE
  40. Sampling rate                            : 48.0 kHz
  41. Frame rate                               : 46.875 FPS (1024 SPF)
  42. Compression mode                         : Lossy
  43. Stream size                              : 207 MiB (8%)
  44. Language                                 : Chinese
  45. Default                                  : Yes
  46. Alternate group                          : 1
  47. Encoded date                             : UTC 2022-01-29 11:09:20
  48. Tagged date                              : UTC 2022-01-29 11:09:20
复制代码







                                       
                                       

                                       
                                       
                                       




回复

使用道具 举报

懒得打字嘛,点击右侧快捷回复 【右侧内容,后台自定义】
您需要登录后才可以回帖 登录 | 立即加入

本版积分规则

Archiver|小黑屋| 蓝光电影网 |网站地图

Copyright © 2021 Comsenz Inc. Powered by 蓝光电影网

蓝光电影网

本站内容由用户自主分享和转载自互联网,转载目的在于传递更多信息,并不代表本网赞同其观点和对其真实性负责。

如有侵权、违反国家法律政策行为,请联系我们,我们会第一时间及时清除和处理!

举报反馈邮箱:[email protected]

快速回复 返回顶部 返回列表