找回密码

蓝光电影网

查看: 2768|回复: 31

[UHD.HEVC] 老男孩 Oldboy.2003.KOREAN.ARROW.2160p.BluRay.REMUX.HEVC.DTS-HD.MA.5.1-FGT 77.88GB

[复制链接]
蓝光币
815
发表于 2022-3-3 22:33:24 | 显示全部楼层 |阅读模式


◎译  名 老男孩 / 原罪犯(港 / 台) / Oldeuboi / Oldboy / Old Boy
◎片  名 ????
◎年  代 2003
◎产  地 韩国
◎类  别 剧情 / 行动 / 悬疑 / 惊悚
◎语  言 韩语
◎上映日期 2003-11-21(韩国)
◎IMDb链接 https://www.imdb.com/title/tt0364569/
◎豆瓣评分 8.2/10 (262796人评价)
◎豆瓣链接 https://movie.douban.com/subject/1308865/
◎片  长 120分钟
◎导  演 朴赞郁 Chan-wook Park (id:1137414)
◎编  剧 黄肇允 Jo-yoon Hwang (id:1306238)
       林俊亨 Chun-hyeong Lim (id:1306217)
       朴赞郁 Chan-wook Park (id:1137414)
       土屋加仑 Garon Tsuchiya (id:1338155)
       岭岸信明 Nobuaki Minegishi (id:1338154)
◎演  员 崔岷植 Min-sik Choi (id:1045142)
       刘智泰 Ji-Tae Yoo (id:1167498)
       姜惠贞 Hye-jeong Kang (id:1014222)
       金秉玉 Byeong-ok Kim (id:1319357)
       吴达洙 Dal-su Oh (id:1203077)
       李胜欣 Seung-Shin Lee (id:1029133)
       尹珍序 Jin-seo Yun (id:1023410)
       池大汉 Dae-han Ji (id:1351122)
       吴泰景 Tae-kyung Oh (id:1038380)
       柳演锡 Yeon-Seok Yoo (id:1321213)
       李代延 Dae-yeon Lee (id:1042754)
       吴光禄 Kwang-rok Oh (id:1203325)
       朴明申 Myung-shin Park (id:1381298)
       龙伊 Yi Yong (id:1021762)
       玛丽·德文 Mari Devon (id:1387244)
       克里斯平·弗里曼 Crispin Freeman (id:1007126)
       史蒂夫·克莱默 Steve Kramer (id:1048019)
       雪莉·琳恩 Sherry Lynn (id:1348618)
       迈克尔·麦康诺希 Michael McConnohie (id:1121961)
       斯蒂芬妮·社 Stephanie Sheh (id:1185244)
       柯克·桑顿 Kirk Thornton (id:1159544)
       凯瑞·华格伦 Kari Wahlgren (id:1326196)
       曹永旭 Yeong-wook Jo (id:1287735)
       沈炫廷 Hyun-jung Shim (id:1363559)
       丁正勋 Chung-hoon Chung (id:1076638)
       金尚范 Sang-bum Kim (id:1288546)
       李庸基 Yong-Gi Lee (id:1314650)
       柳星姬 Seong-hie Ryu (id:1307424)
       李桂碧 Gye-byeok Lee (id:1347842)
       石珉雨 Min-woo Seok (id:1349917)
       郑植 Sik Jung (id:1342778)
       梁吉泳 Kil-Yong Yang (id:1325149)
◎简  介

  女儿生日那天,中年男人吴大修(崔岷植饰)在醉酒回家路上,突遭不明身份的人绑架失落。就此,他毫无来由地被软禁在一个奥秘的私人牢狱中。寻死未果的吴大修,天天看电视,三餐吃煎饺。经过电视,他得知妻子已遭杀戮,女儿着落不明,自己更被思疑为凶手。就此,吴大修起头锻炼身材,决心复仇,并在牢中度过冗长的15年。                                    
                                当吴奥秘挖通墙壁时,却在某一天被放出,得以重见天日。他掉臂一切地寻觅自己被绑架软禁的缘由,并展开疯狂的复仇计划。他碰见了年轻的寿司女伙计(姜惠贞饰),并借助同学老友追随仇人,成功赏罚了牢狱看管(吴达庶饰)一番。与此同时,幕后仇人李有真(刘智泰饰)也浮出水面……
◎获奖情况 (共3项)
  第57届戛纳电影节 (2004)
  主比赛单元 金棕榈奖(提名)
   └──朴赞郁 (id:1137414)
  主比赛单元 评审团大奖
   └──朴赞郁 (id:1137414)
  第24届香港电影金像奖 (2005)
  最好亚洲电影
  1. Video
  2. ID                                       : 1
  3. ID in the original source medium         : 4113 (0x1011)
  4. Format                                   : HEVC
  5. Format/Info                              : High Efficiency Video Coding
  6. Format profile                           : Main [email protected]@High
  7. HDR format                               : Dolby Vision, Version 1.0, dvhe.07.06, BL+EL+RPU, Blu-ray compatible / SMPTE ST 2086, HDR10 compatible
  8. Codec ID                                 : V_MPEGH/ISO/HEVC
  9. Duration                                 : 1 h 59 min
  10. Bit rate                                 : 84.9 Mb/s
  11. Width                                    : 3 840 pixels
  12. Height                                   : 2 160 pixels
  13. Display aspect ratio                     : 16:9
  14. Frame rate mode                          : Constant
  15. Frame rate                               : 23.976 (24000/1001/189150) FPS
  16. Color space                              : YUV
  17. Chroma subsampling                       : 4:2:0 (Type 2)
  18. Bit depth                                : 10 bits
  19. Bits/(Pixel*Frame)                       : 0.427
  20. Stream size                              : 71.1 GiB (91%)
  21. Language                                 : English
  22. Default                                  : No
  23. Forced                                   : No
  24. Color range                              : Limited
  25. Color primaries                          : BT.2020
  26. Transfer characteristics                 : PQ
  27. Matrix coefficients                      : BT.2020 non-constant
  28. Mastering display color primaries        : Display P3
  29. Mastering display luminance              : min: 0.0001 cd/m2, max: 1000 cd/m2
  30. Original source medium                   : Blu-ray
  31. Audio #1
  32. ID                                       : 2
  33. ID in the original source medium         : 4352 (0x1100)
  34. Format                                   : DTS XLL
  35. Format/Info                              : Digital Theater Systems
  36. Commercial name                          : DTS-HD Master Audio
  37. Codec ID                                 : A_DTS
  38. Duration                                 : 1 h 59 min
  39. Bit rate mode                            : Variable
  40. Bit rate                                 : 3 206 kb/s
  41. Channel(s)                               : 6 channels
  42. Channel layout                           : C L R Ls Rs LFE
  43. Sampling rate                            : 48.0 kHz
  44. Frame rate                               : 93.750 FPS (512 SPF)
  45. Bit depth                                : 24 bits
  46. Compression mode                         : Lossless
  47. Stream size                              : 2.68 GiB (3%)
  48. Title                                    : DTS-HD MA 5.1
  49. Language                                 : Korean
  50. Default                                  : Yes
  51. Forced                                   : No
  52. Original source medium                   : Blu-ray
  53. Audio #2
  54. ID                                       : 3
  55. Format                                   : AC-3
  56. Format/Info                              : Audio Coding 3
  57. Commercial name                          : Dolby Digital
  58. Codec ID                                 : A_AC3
  59. Duration                                 : 1 h 59 min
  60. Bit rate mode                            : Constant
  61. Bit rate                                 : 640 kb/s
  62. Channel(s)                               : 6 channels
  63. Channel layout                           : L R C LFE Ls Rs
  64. Sampling rate                            : 48.0 kHz
  65. Frame rate                               : 31.250 FPS (1536 SPF)
  66. Compression mode                         : Lossy
  67. Stream size                              : 549 MiB (1%)
  68. Title                                    : DD 5.1
  69. Language                                 : Korean
  70. Service kind                             : Complete Main
  71. Default                                  : No
  72. Forced                                   : No
  73. Audio #3
  74. ID                                       : 4
  75. ID in the original source medium         : 4353 (0x1101)
  76. Format                                   : DTS XLL
  77. Format/Info                              : Digital Theater Systems
  78. Commercial name                          : DTS-HD Master Audio
  79. Codec ID                                 : A_DTS
  80. Duration                                 : 1 h 59 min
  81. Bit rate mode                            : Variable
  82. Bit rate                                 : 1 647 kb/s
  83. Channel(s)                               : 2 channels
  84. Channel layout                           : L R
  85. Sampling rate                            : 48.0 kHz
  86. Frame rate                               : 93.750 FPS (512 SPF)
  87. Bit depth                                : 24 bits
  88. Compression mode                         : Lossless
  89. Stream size                              : 1.38 GiB (2%)
  90. Title                                    : DTS-HD MA 2.0
  91. Language                                 : Korean
  92. Default                                  : No
  93. Forced                                   : No
  94. Original source medium                   : Blu-ray
  95. Audio #4
  96. ID                                       : 5
  97. ID in the original source medium         : 4354 (0x1102)
  98. Format                                   : DTS
  99. Format/Info                              : Digital Theater Systems
  100. Codec ID                                 : A_DTS
  101. Duration                                 : 1 h 59 min
  102. Bit rate mode                            : Constant
  103. Bit rate                                 : 768 kb/s
  104. Channel(s)                               : 6 channels
  105. Channel layout                           : C L R Ls Rs LFE
  106. Sampling rate                            : 48.0 kHz
  107. Frame rate                               : 93.750 FPS (512 SPF)
  108. Bit depth                                : 16 bits
  109. Compression mode                         : Lossy
  110. Stream size                              : 659 MiB (1%)
  111. Title                                    : DTS 5.1
  112. Language                                 : English
  113. Default                                  : No
  114. Forced                                   : No
  115. Original source medium                   : Blu-ray
  116. Audio #5
  117. ID                                       : 6
  118. ID in the original source medium         : 4355 (0x1103)
  119. Format                                   : DTS XLL
  120. Format/Info                              : Digital Theater Systems
  121. Commercial name                          : DTS-HD Master Audio
  122. Codec ID                                 : A_DTS
  123. Duration                                 : 1 h 59 min
  124. Bit rate mode                            : Variable
  125. Bit rate                                 : 1 017 kb/s
  126. Channel(s)                               : 2 channels
  127. Channel layout                           : L R
  128. Sampling rate                            : 48.0 kHz
  129. Frame rate                               : 93.750 FPS (512 SPF)
  130. Bit depth                                : 16 bits
  131. Compression mode                         : Lossless
  132. Stream size                              : 872 MiB (1%)
  133. Title                                    : DTS-HD MA 2.0
  134. Default                                  : No
  135. Forced                                   : No
  136. Original source medium                   : Blu-ray
  137. Audio #6
  138. ID                                       : 7
  139. ID in the original source medium         : 4356 (0x1104)
  140. Format                                   : AC-3
  141. Format/Info                              : Audio Coding 3
  142. Commercial name                          : Dolby Digital
  143. Codec ID                                 : A_AC3
  144. Duration                                 : 1 h 59 min
  145. Bit rate mode                            : Constant
  146. Bit rate                                 : 192 kb/s
  147. Channel(s)                               : 2 channels
  148. Channel layout                           : L R
  149. Sampling rate                            : 48.0 kHz
  150. Frame rate                               : 31.250 FPS (1536 SPF)
  151. Compression mode                         : Lossy
  152. Stream size                              : 165 MiB (0%)
  153. Title                                    : DD 2.0
  154. Language                                 : Korean
  155. Service kind                             : Complete Main
  156. Default                                  : No
  157. Forced                                   : No
  158. Original source medium                   : Blu-ray
  159. Audio #7
  160. ID                                       : 8
  161. ID in the original source medium         : 4357 (0x1105)
  162. Format                                   : AC-3
  163. Format/Info                              : Audio Coding 3
  164. Commercial name                          : Dolby Digital
  165. Codec ID                                 : A_AC3
  166. Duration                                 : 1 h 59 min
  167. Bit rate mode                            : Constant
  168. Bit rate                                 : 192 kb/s
  169. Channel(s)                               : 2 channels
  170. Channel layout                           : L R
  171. Sampling rate                            : 48.0 kHz
  172. Frame rate                               : 31.250 FPS (1536 SPF)
  173. Compression mode                         : Lossy
  174. Stream size                              : 165 MiB (0%)
  175. Title                                    : DD 2.0
  176. Language                                 : Korean
  177. Service kind                             : Complete Main
  178. Default                                  : No
  179. Forced                                   : No
  180. Original source medium                   : Blu-ray
  181. Audio #8
  182. ID                                       : 9
  183. ID in the original source medium         : 4358 (0x1106)
  184. Format                                   : AC-3
  185. Format/Info                              : Audio Coding 3
  186. Commercial name                          : Dolby Digital
  187. Codec ID                                 : A_AC3
  188. Duration                                 : 1 h 59 min
  189. Bit rate mode                            : Constant
  190. Bit rate                                 : 192 kb/s
  191. Channel(s)                               : 2 channels
  192. Channel layout                           : L R
  193. Sampling rate                            : 48.0 kHz
  194. Frame rate                               : 31.250 FPS (1536 SPF)
  195. Compression mode                         : Lossy
  196. Stream size                              : 165 MiB (0%)
  197. Title                                    : DD 2.0
  198. Language                                 : Korean
  199. Service kind                             : Complete Main
  200. Default                                  : No
  201. Forced                                   : No
  202. Original source medium                   : Blu-ray
  203. Audio #9
  204. ID                                       : 10
  205. ID in the original source medium         : 4359 (0x1107)
  206. Format                                   : AC-3
  207. Format/Info                              : Audio Coding 3
  208. Commercial name                          : Dolby Digital
  209. Codec ID                                 : A_AC3
  210. Duration                                 : 1 h 59 min
  211. Bit rate mode                            : Constant
  212. Bit rate                                 : 192 kb/s
  213. Channel(s)                               : 2 channels
  214. Channel layout                           : L R
  215. Sampling rate                            : 48.0 kHz
  216. Frame rate                               : 31.250 FPS (1536 SPF)
  217. Compression mode                         : Lossy
  218. Stream size                              : 165 MiB (0%)
  219. Title                                    : DD 2.0
  220. Language                                 : English
  221. Service kind                             : Complete Main
  222. Default                                  : No
  223. Forced                                   : No
  224. Original source medium                   : Blu-ray
  225. Text #1
  226. ID                                       : 11
  227. Format                                   : UTF-8
  228. Codec ID                                 : S_TEXT/UTF8
  229. Codec ID/Info                            : UTF-8 Plain Text
  230. Duration                                 : 1 h 57 min
  231. Bit rate                                 : 39 b/s
  232. Count of elements                        : 982
  233. Stream size                              : 33.9 KiB (0%)
  234. Language                                 : English
  235. Default                                  : Yes
  236. Forced                                   : No
  237. Text #2
  238. ID                                       : 12
  239. Format                                   : UTF-8
  240. Codec ID                                 : S_TEXT/UTF8
  241. Codec ID/Info                            : UTF-8 Plain Text
  242. Duration                                 : 1 h 57 min
  243. Bit rate                                 : 43 b/s
  244. Count of elements                        : 1143
  245. Stream size                              : 37.7 KiB (0%)
  246. Title                                    : SDH
  247. Language                                 : English
  248. Default                                  : No
  249. Forced                                   : No
  250. Text #3
  251. ID                                       : 13
  252. ID in the original source medium         : 4768 (0x12A0)
  253. Format                                   : PGS
  254. Muxing mode                              : zlib
  255. Codec ID                                 : S_HDMV/PGS
  256. Codec ID/Info                            : Picture based subtitle format used on BDs/HD-DVDs
  257. Duration                                 : 1 h 57 min
  258. Bit rate                                 : 22.4 kb/s
  259. Count of elements                        : 1926
  260. Stream size                              : 18.9 MiB (0%)
  261. Language                                 : English
  262. Default                                  : No
  263. Forced                                   : No
  264. Original source medium                   : Blu-ray
  265. Text #4
  266. ID                                       : 14
  267. ID in the original source medium         : 4769 (0x12A1)
  268. Format                                   : PGS
  269. Muxing mode                              : zlib
  270. Codec ID                                 : S_HDMV/PGS
  271. Codec ID/Info                            : Picture based subtitle format used on BDs/HD-DVDs
  272. Duration                                 : 1 h 57 min
  273. Bit rate                                 : 29.1 kb/s
  274. Count of elements                        : 2312
  275. Stream size                              : 24.4 MiB (0%)
  276. Language                                 : English
  277. Default                                  : No
  278. Forced                                   : No
  279. Original source medium                   : Blu-ray
  280. Text #5
  281. ID                                       : 15
  282. ID in the original source medium         : 4770 (0x12A2)
  283. Format                                   : PGS
  284. Muxing mode                              : zlib
  285. Codec ID                                 : S_HDMV/PGS
  286. Codec ID/Info                            : Picture based subtitle format used on BDs/HD-DVDs
  287. Duration                                 : 1 h 59 min
  288. Bit rate                                 : 36.2 kb/s
  289. Count of elements                        : 2684
  290. Stream size                              : 31.0 MiB (0%)
  291. Language                                 : English
  292. Default                                  : No
  293. Forced                                   : No
  294. Original source medium                   : Blu-ray
  295. Text #6
  296. ID                                       : 16
  297. ID in the original source medium         : 4771 (0x12A3)
  298. Format                                   : PGS
  299. Muxing mode                              : zlib
  300. Codec ID                                 : S_HDMV/PGS
  301. Codec ID/Info                            : Picture based subtitle format used on BDs/HD-DVDs
  302. Duration                                 : 1 h 59 min
  303. Bit rate                                 : 43.7 kb/s
  304. Count of elements                        : 2912
  305. Stream size                              : 37.4 MiB (0%)
  306. Language                                 : English
  307. Default                                  : No
  308. Forced                                   : No
  309. Original source medium                   : Blu-ray
  310. Text #7
  311. ID                                       : 17
  312. ID in the original source medium         : 4772 (0x12A4)
  313. Format                                   : PGS
  314. Muxing mode                              : zlib
  315. Codec ID                                 : S_HDMV/PGS
  316. Codec ID/Info                            : Picture based subtitle format used on BDs/HD-DVDs
  317. Duration                                 : 1 h 59 min
  318. Bit rate                                 : 41.4 kb/s
  319. Count of elements                        : 3306
  320. Stream size                              : 35.5 MiB (0%)
  321. Language                                 : English
  322. Default                                  : No
  323. Forced                                   : No
  324. Original source medium                   : Blu-ray
  325. Menu
  326. 00:00:00.000                             : en:Chapter 01
  327. 00:05:58.649                             : en:Chapter 02
  328. 00:12:16.193                             : en:Chapter 03
  329. 00:18:08.587                             : en:Chapter 04
  330. 00:28:40.844                             : en:Chapter 05
  331. 00:33:57.452                             : en:Chapter 06
  332. 00:42:37.054                             : en:Chapter 07
  333. 00:47:37.312                             : en:Chapter 08
  334. 00:52:45.829                             : en:Chapter 09
  335. 01:00:59.947                             : en:Chapter 10
  336. 01:12:37.519                             : en:Chapter 11
  337. 01:19:26.470                             : en:Chapter 12
  338. 01:29:11.304                             : en:Chapter 13
  339. 01:40:55.883                             : en:Chapter 14
  340. 01:49:27.060                             : en:Chapter 15
复制代码




                                       
                                       

                                       
                                       
                                       




回复

使用道具 举报

蓝光币
148
发表于 2022-3-3 23:02:18 | 显示全部楼层
楼主发贴辛苦了,谢谢楼主分享!我觉得蓝光电影网是注册对了!
回复 支持 反对

使用道具 举报

蓝光币
76
发表于 2022-3-4 08:48:20 | 显示全部楼层

既然你诚信诚意的推荐了,那我就勉为其难的看看吧!蓝光电影网不走平凡路。
回复 支持 反对

使用道具 举报

蓝光币
80
发表于 2022-3-4 08:54:44 | 显示全部楼层
楼主发贴辛苦了,谢谢楼主分享!我觉得蓝光电影网是注册对了!
回复 支持 反对

使用道具 举报

蓝光币
474
发表于 2022-3-4 09:09:26 | 显示全部楼层
楼主发贴辛苦了,谢谢楼主分享!我觉得蓝光电影网是注册对了!
回复 支持 反对

使用道具 举报

蓝光币
91
发表于 2022-3-4 09:43:39 | 显示全部楼层

感谢楼主的无私分享!要想蓝光电影网好 就靠你我他
回复 支持 反对

使用道具 举报

蓝光币
85
发表于 2022-3-4 09:44:45 | 显示全部楼层


既然你诚信诚意的推荐了,那我就勉为其难的看看吧!蓝光电影网不走平凡路。
回复 支持 反对

使用道具 举报

蓝光币
64
发表于 2022-3-4 10:52:01 | 显示全部楼层
谢谢分享
回复

使用道具 举报

蓝光币
438
发表于 2022-3-4 11:21:14 | 显示全部楼层
楼主发贴辛苦了,谢谢楼主分享!我觉得蓝光电影网是注册对了!
回复 支持 反对

使用道具 举报

蓝光币
837
发表于 2022-3-4 14:06:50 | 显示全部楼层
不错,收下了。
回复 支持 反对

使用道具 举报

懒得打字嘛,点击右侧快捷回复 【右侧内容,后台自定义】
您需要登录后才可以回帖 登录 | 立即加入

本版积分规则

Archiver|小黑屋| 蓝光电影网 |网站地图

Copyright © 2021 Comsenz Inc. Powered by 蓝光电影网

蓝光电影网

本站内容由用户自主分享和转载自互联网,转载目的在于传递更多信息,并不代表本网赞同其观点和对其真实性负责。

如有侵权、违反国家法律政策行为,请联系我们,我们会第一时间及时清除和处理!

举报反馈邮箱:[email protected]

快速回复 返回顶部 返回列表