找回密码

蓝光电影网

查看: 9684|回复: 246

[动作] 蜘蛛侠:英雄无归 [外挂中字]Spider-Man.No.Way.Home.2021.1080p.BluRay.x264.DTS-HD.MA.5.1-NOGRP 14.90GB

  [复制链接]
蓝光币
815
发表于 2022-3-11 22:40:48 | 显示全部楼层 |阅读模式


◎译  名 蜘蛛侠:豪杰无归 / 新蜘蛛侠3 / 蜘蛛侠:无回之战 / 蜘蛛侠:不战无归(港) / 蜘蛛人:无家日(台) / 蜘蛛侠3:豪杰末路 / 蜘蛛侠3:无家可归 / Spider-Man 3 / Spider-Man: Phone Home / Spider-Man: Home-Wrecker / Spider-Man: Home Slice
◎片  名 Spider-Man: No Way Home
◎年  代 2021
◎产  地 美国 / 冰岛
◎类  别 行动 / 科幻 / 冒险
◎语  言 英语 / 他加禄语
◎上映日期 2021-12-15(中国台湾) / 2021-12-17(美国)
◎IMDb链接 https://www.imdb.com/title/tt10872600/
◎豆瓣评分 7.5/10 (80556人评价)
◎豆瓣链接 https://movie.douban.com/subject/26933210/
◎片  长 148分钟
◎导  演 乔·沃茨 Jon Watts (id:1350194)
◎编  剧 克里斯·麦克纳 Chris McKenna (id:1331505)
       埃里克·萨默斯 Erik Sommers (id:1368514)
       斯坦·李 Stan Lee (id:1013888)
       史蒂夫·迪特寇 Steve Ditko (id:1041593)
       克里斯·麦基纳 Chris McKenna (id:1028187)
◎演  员 汤姆·赫兰德 Tom Holland (id:1325351)
       赞达亚 Zendaya (id:1325576)
       本尼迪克特·康伯巴奇 Benedict Cumberbatch (id:1009405)
       雅各布·巴特朗 Jacob Batalon (id:1376777)
       玛丽莎·托梅 Marisa Tomei (id:1047974)
       乔恩·费儒 Jon Favreau (id:1027164)
       威廉·达福 Willem Dafoe (id:1010539)
       阿尔弗雷德·莫里纳 Alfred Molina (id:1017897)
       杰米·福克斯 Jamie Foxx (id:1036329)
       本尼迪克特·王 Benedict Wong (id:1301179)
       J·K·西蒙斯 J.K. Simmons (id:1147911)
       托比·马奎尔 Tobey Maguire (id:1047997)
       安德鲁·加菲尔德 Andrew Garfield (id:1022620)
       查理·考克斯 Charlie Cox (id:1036486)
       瑞斯·伊凡斯 Rhys Ifans (id:1010549)
       托马斯·哈登·丘奇 Thomas Haden Church (id:1019041)
       安格瑞·赖斯 Angourie Rice (id:1334837)
       托尼·雷沃罗利 Tony Revolori (id:1204197)
       宝拉·纽瑟姆 Paula Newsome (id:1343185)
       汉尼拔·布勒斯 Hannibal Buress (id:1354114)
       马丁·斯塔尔 Martin Starr (id:1022628)
       J·B·斯穆夫 J.B. Smoove (id:1036634)
       哈龙·汗 Haroon Khan (id:1390260)
       本·范德梅 Ben VanderMey (id:1384073)
       加里·维克斯 Gary Weeks (id:1019215)
       马洛里·霍夫 Mallory Hoff (id:1421818)
       里贾纳·陈婷 Regina Ting Chen (id:1357977)
       格伦·基奥 Glenn Keogh (id:1340924)
       帕丽丝·本杰明 Paris Benjamin (id:1256466)
       朱万达斯·坎迪斯 Jwaundace Candece (id:1214914)
       泰勒·圣克莱尔 Taylor St. Clair (id:1336021)
       小豪尔赫·兰登伯格 Jorge Lendeborg Jr. (id:1376970)
       何塞·阿尔弗雷多·费尔南德斯 José Alfredo Fernandez (id:1411163)
       约翰尼·塞雷 Johnny Serret (id:1385260)
       罗伯特·廷斯利 Robert Tinsley (id:1402482)
       哈里·赫兰德 Harry Holland (id:1450046)
       汤姆·哈迪 Tom Hardy (id:1049489)
       克里斯托·费尔南德斯 Cristo Fernández (id:1461644)
       布莱德利·瑞安·奈斯贝尔 Bradley Ryan Knispel (id:1436519)
       阿里安·莫耶德 Arian Moayed (id:1468091)
       凯文·费奇 Kevin Feige (id:1340830)
       迈克·吉亚奇诺 Michael Giacchino (id:1027937)
       萨尼娅·米尔科维奇·海斯 Sanja Milkovic Hays (id:1051411)
◎简  介

  《蜘蛛侠:豪杰无归》是豪杰系列三部曲的结束篇,也标志着漫威多元宇宙的正式开启。此次,蜘蛛侠(汤姆·赫兰德 饰)与奇异博士(本尼迪克特·康伯巴奇 饰)继《复联4》后再度联手打响时空混战。蜘蛛侠借助奇异博士操控时空的才能翻开了时空通道,激发了前所未见的危机。
◎获奖情况 (共3项)
  第94届奥斯卡金像奖 (2022)
  最好视觉结果(提名)
  第24届美国打扮设想工会奖 (2022)
  科幻/奇异题材电影最好打扮设想(提名)
   └──萨尼娅·米尔科维奇·海斯 (id:1051411)
  第7届豆瓣电影年度榜单 (2020)
  最值得期待的外语电影(提名)
  1. Video
  2. ID                                       : 1
  3. Format                                   : AVC
  4. Format/Info                              : Advanced Video Codec
  5. Format profile                           : [email protected]
  6. Format settings                          : CABAC / 4 Ref Frames
  7. Format settings, CABAC                   : Yes
  8. Format settings, Reference frames        : 4 frames
  9. Codec ID                                 : V_MPEG4/ISO/AVC
  10. Duration                                 : 2 h 28 min
  11. Bit rate                                 : 11.6 Mb/s
  12. Width                                    : 1 920 pixels
  13. Height                                   : 800 pixels
  14. Display aspect ratio                     : 2.40:1
  15. Frame rate mode                          : Constant
  16. Frame rate                               : 23.976 (24000/1001/189150) FPS
  17. Color space                              : YUV
  18. Chroma subsampling                       : 4:2:0
  19. Bit depth                                : 8 bits
  20. Scan type                                : Progressive
  21. Bits/(Pixel*Frame)                       : 0.314
  22. Stream size                              : 12.0 GiB (80%)
  23. Writing library                          : x264 core 142 r2479 dd79a61
  24. Encoding settings                        : cabac=1 / ref=1 / deblock=1:0:0 / analyse=0x3:0x3 / me=dia / subme=1 / psy=1 / psy_rd=1.00:0.00 / mixed_ref=0 / me_range=16 / chroma_me=1 / trellis=0 / 8x8dct=1 / cqm=0 / deadzone=21,11 / fast_pskip=1 / chroma_qp_offset=0 / threads=24 / lookahead_threads=4 / sliced_threads=0 / nr=0 / decimate=1 / interlaced=0 / bluray_compat=0 / constrained_intra=0 / bframes=3 / b_pyramid=2 / b_adapt=1 / b_bias=0 / direct=1 / weightb=1 / open_gop=0 / weightp=1 / keyint=240 / keyint_min=24 / scenecut=40 / intra_refresh=0 / rc_lookahead=0 / rc=abr / mbtree=0 / bitrate=11557 / ratetol=1.0 / qcomp=0.60 / qpmin=0 / qpmax=69 / qpstep=4 / vbv_maxrate=62500 / vbv_bufsize=78125 / nal_hrd=none / filler=0 / ip_ratio=1.40 / pb_ratio=1.30 / aq=1:1.00
  25. Language                                 : English
  26. Default                                  : Yes
  27. Forced                                   : No
  28. Color range                              : Limited
  29. Color primaries                          : BT.709
  30. Transfer characteristics                 : BT.709
  31. Matrix coefficients                      : BT.709
  32. Audio #1
  33. ID                                       : 2
  34. Format                                   : DTS XLL
  35. Format/Info                              : Digital Theater Systems
  36. Commercial name                          : DTS-HD Master Audio
  37. Codec ID                                 : A_DTS
  38. Duration                                 : 2 h 28 min
  39. Bit rate mode                            : Variable
  40. Bit rate                                 : 2 200 kb/s
  41. Channel(s)                               : 6 channels
  42. Channel layout                           : C L R Ls Rs LFE
  43. Sampling rate                            : 48.0 kHz
  44. Frame rate                               : 93.750 FPS (512 SPF)
  45. Bit depth                                : 16 bits
  46. Compression mode                         : Lossless
  47. Stream size                              : 2.28 GiB (15%)
  48. Title                                    : DTS-HD MA 5.1
  49. Language                                 : English
  50. Default                                  : Yes
  51. Forced                                   : No
  52. Audio #2
  53. ID                                       : 3
  54. Format                                   : AC-3
  55. Format/Info                              : Audio Coding 3
  56. Commercial name                          : Dolby Digital
  57. Codec ID                                 : A_AC3
  58. Duration                                 : 2 h 28 min
  59. Bit rate mode                            : Constant
  60. Bit rate                                 : 640 kb/s
  61. Channel(s)                               : 6 channels
  62. Channel layout                           : L R C LFE Ls Rs
  63. Sampling rate                            : 48.0 kHz
  64. Frame rate                               : 31.250 FPS (1536 SPF)
  65. Compression mode                         : Lossy
  66. Stream size                              : 678 MiB (4%)
  67. Title                                    : DD 5.1
  68. Language                                 : English
  69. Service kind                             : Complete Main
  70. Default                                  : No
  71. Forced                                   : No
  72. Text #1
  73. ID                                       : 4
  74. Format                                   : UTF-8
  75. Codec ID                                 : S_TEXT/UTF8
  76. Codec ID/Info                            : UTF-8 Plain Text
  77. Duration                                 : 2 h 27 min
  78. Bit rate                                 : 63 b/s
  79. Count of elements                        : 2187
  80. Stream size                              : 69.1 KiB (0%)
  81. Language                                 : English
  82. Default                                  : Yes
  83. Forced                                   : No
  84. Text #2
  85. ID                                       : 5
  86. Format                                   : UTF-8
  87. Codec ID                                 : S_TEXT/UTF8
  88. Codec ID/Info                            : UTF-8 Plain Text
  89. Duration                                 : 2 h 27 min
  90. Bit rate                                 : 67 b/s
  91. Count of elements                        : 2403
  92. Stream size                              : 73.5 KiB (0%)
  93. Title                                    : SDH
  94. Language                                 : English
  95. Default                                  : No
  96. Forced                                   : No
复制代码







                                       
                                       

                                       
                                       
                                       






回复

使用道具 举报

蓝光币
606
发表于 2022-3-12 02:02:16 | 显示全部楼层
楼主发贴辛苦了,谢谢楼主分享!我觉得蓝光电影网是注册对了!
回复 支持 反对

使用道具 举报

蓝光币
24
发表于 2022-3-12 06:29:19 | 显示全部楼层

这东西我收了!谢谢楼主!蓝光电影网真好!
回复 支持 反对

使用道具 举报

蓝光币
4
发表于 2022-3-12 08:58:37 | 显示全部楼层
谢谢楼主!蓝光电影网真好!
回复 支持 反对

使用道具 举报

蓝光币
34
发表于 2022-3-12 09:08:15 | 显示全部楼层

这东西我收了!谢谢楼主!蓝光电影网真好!
回复 支持 反对

使用道具 举报

蓝光币
7
发表于 2022-3-12 09:46:41 | 显示全部楼层
感谢分享,希望网站越来越好
回复 支持 反对

使用道具 举报

蓝光币
1
发表于 2022-3-12 11:42:37 | 显示全部楼层

楼主,我太崇拜你了!我想我是一天也不能离开蓝光电影网。
回复 支持 反对

使用道具 举报

蓝光币
57
发表于 2022-3-12 11:47:48 | 显示全部楼层


楼主,我太崇拜你了!我想我是一天也不能离开蓝光电影网。
回复 支持 反对

使用道具 举报

蓝光币
2
发表于 2022-3-12 14:17:02 来自手机 | 显示全部楼层
谢谢楼主!蓝光电影网真好!
回复 支持 反对

使用道具 举报

蓝光币
180
发表于 2022-3-12 16:15:48 | 显示全部楼层

楼主太厉害了!楼主,电影应该很好看我觉得蓝光电影网真是个好地方!
回复 支持 反对

使用道具 举报

懒得打字嘛,点击右侧快捷回复 【右侧内容,后台自定义】
您需要登录后才可以回帖 登录 | 立即加入

本版积分规则

Archiver|小黑屋| 蓝光电影网 |网站地图

Copyright © 2021 Comsenz Inc. Powered by 蓝光电影网

蓝光电影网

本站内容由用户自主分享和转载自互联网,转载目的在于传递更多信息,并不代表本网赞同其观点和对其真实性负责。

如有侵权、违反国家法律政策行为,请联系我们,我们会第一时间及时清除和处理!

举报反馈邮箱:[email protected]

快速回复 返回顶部 返回列表