找回密码

查看: 2366|回复: 0

[UHD.HEVC] 大巧局 Family.Plot.1976.2160p.BluRay.REMUX.HEVC.DTS-HD.MA.2.0-FGT 54.53GB

[复制链接]
蓝光币
2048
发表于 2022-5-5 08:55:52 | 显示全部楼层 |阅读模式


◎译  名 大巧局 / 家庭诡计 / 奇案
◎片  名 Family Plot
◎年  代 1976
◎产  地 美国
◎类  别 笑剧 / 惊悚 / 犯罪
◎语  言 英语
◎上映日期 1976-04-09
◎IMDb链接 https://www.imdb.com/title/tt0074512/
◎豆瓣评分 7.1/10 (2180人评价)
◎豆瓣链接 https://movie.douban.com/subject/1298371/
◎片  长 121 分钟
◎导  演 阿尔弗雷德·希区柯克 Alfred Hitchcock (id:1025185)
◎编  剧 恩斯特·莱赫曼 Ernest Lehman (id:1037077)
       维克托·坎宁 Victor Canning (id:1020295)
◎演  员 凯伦·布莱克 Karen Black (id:1010618)
       布鲁斯·邓恩 Bruce Dern (id:1019069)
       芭芭拉·哈里斯 Barbara Harris (id:1022842)
       威廉姆·德瓦内 William Devane (id:1055380)
       阿尔弗雷德·希区柯克 Alfred Hitchcock (id:1025185)
       Martin West Martin West (id:1165652)
       查尔斯·泰纳 Charles Tyner (id:1156354)
       约翰·斯特德曼 John Steadman (id:1153600)
       玛吉·雷德蒙德 Marge Redmond (id:1148019)
       弗兰·瑞恩 Fran Ryan (id:1145812)
       凯瑟琳·内斯比特 Cathleen Nesbitt (id:1130251)
       Alexander Lockwood Alexander Lockwood (id:1122831)
       尼可拉斯·科拉山多 Nicholas Colasanto (id:1014028)
       威廉·普林斯 William Prince (id:1007195)
       凯瑟琳·海蒙德 Katherine Helmond (id:1055198)
       伊迪丝·阿特沃特 Edith Atwater (id:1058918)
       Dee Carroll Dee Carroll (id:1069521)
       Elisabeth Brooks Elisabeth Brooks (id:1071270)
       阿兰·弗吉 Alan Fudge (id:1083598)
       理查德·黑尔 Richard Hale (id:1091536)
       John Lehne John Lehne (id:1106599)
       沃伦·肯梅灵 Warren J. Kemmerling (id:1107977)
       埃德·劳特尔 Ed Lauter (id:1111563)
       Louise Lorimer Louise Lorimer (id:1120824)
       阿尔弗雷德·希区柯克 Alfred Hitchcock (id:1025185)
       约翰·威廉姆斯 John Williams (id:1054692)
       Leonard J. South Leonard J. South (id:1029491)
       J·泰瑞·威廉姆斯 J. Terry Williams (id:1300967)
       詹姆斯·W·佩恩 James W. Payne (id:1294162)
       亨利·巴姆斯泰德 Henry Bumstead (id:1033020)
       伊迪丝·海德 Edith Head (id:1041085)
       Jack Barron Jack Barron (id:1277983)
       John Slosser John Slosser (id:1297796)
       霍华德·G·卡赞强 Howard G. Kazanjian (id:1288271)
       Wayne A. Farlow Wayne A. Farlow (id:1087289)
       亚瑟·威德默 Arthur Widmer (id:1324989)
       阿尔伯特·惠特洛克 Albert Whitlock (id:1162773)
       Bill Taylor Bill Taylor (id:1298968)
       Syd Dutton Syd Dutton (id:1038517)
◎简  介

  茱莉亚(Cathleen Nesbitt 饰)年龄已高,家财万贯,可是没有子嗣,也就没著名正言顺的继续者,为此,她找到了女巫师布兰奇(芭芭拉·哈里斯 Barbara Harris 饰)。茱莉亚告诉布兰奇,她的妹妹曾有一个私生子,被她送给他人抚养,现在,她想找到这个不幸的孩子,让他继续产业。                                    
                                就这样,布兰奇和情人乔治(布鲁斯·邓恩 Bruce Dern 饰)一路展开了观察,得知领养茱莉亚外甥的阿谁家庭全员葬身于大火当中,而纵火的不是他人,正是他们想要找的那小我——爱德华(威廉姆·德瓦内 William Devane 饰)。现在的爱德华更名换姓,成为了一位珠宝商,狡猾的他惧怕昔时的罪行曝光,因而雇佣了昔时帮他脱罪的马罗尼(艾德·劳特 Ed Lauter 饰),让他将布兰奇一行人杀死。
  1. Video
  2. ID                                       : 1
  3. ID in the original source medium         : 4113 (0x1011)
  4. Format                                   : HEVC
  5. Format/Info                              : High Efficiency Video Coding
  6. Format profile                           : Main [email protected]@High
  7. HDR format                               : SMPTE ST 2086, HDR10 compatible
  8. Codec ID                                 : V_MPEGH/ISO/HEVC
  9. Duration                                 : 2 h 0 min
  10. Bit rate                                 : 59.4 Mb/s
  11. Width                                    : 3 840 pixels
  12. Height                                   : 2 160 pixels
  13. Display aspect ratio                     : 16:9
  14. Frame rate mode                          : Constant
  15. Frame rate                               : 23.976 (24000/1001/189150) FPS
  16. Color space                              : YUV
  17. Chroma subsampling                       : 4:2:0 (Type 2)
  18. Bit depth                                : 10 bits
  19. Bits/(Pixel*Frame)                       : 0.299
  20. Stream size                              : 49.8 GiB (91%)
  21. Language                                 : English
  22. Default                                  : No
  23. Forced                                   : No
  24. Color range                              : Limited
  25. Color primaries                          : BT.2020
  26. Transfer characteristics                 : PQ
  27. Matrix coefficients                      : BT.2020 non-constant
  28. Mastering display color primaries        : Display P3
  29. Mastering display luminance              : min: 0.0050 cd/m2, max: 1000 cd/m2
  30. Maximum Content Light Level              : 1000 cd/m2
  31. Maximum Frame-Average Light Level        : 95 cd/m2
  32. Original source medium                   : Blu-ray
  33. Audio #1
  34. ID                                       : 2
  35. ID in the original source medium         : 4352 (0x1100)
  36. Format                                   : DTS XLL
  37. Format/Info                              : Digital Theater Systems
  38. Commercial name                          : DTS-HD Master Audio
  39. Codec ID                                 : A_DTS
  40. Duration                                 : 2 h 0 min
  41. Bit rate mode                            : Variable
  42. Bit rate                                 : 1 836 kb/s
  43. Channel(s)                               : 2 channels
  44. Channel layout                           : L R
  45. Sampling rate                            : 48.0 kHz
  46. Frame rate                               : 93.750 FPS (512 SPF)
  47. Bit depth                                : 24 bits
  48. Compression mode                         : Lossless
  49. Stream size                              : 1.54 GiB (3%)
  50. Title                                    : DTS-HD MA 2.0
  51. Language                                 : English
  52. Default                                  : Yes
  53. Forced                                   : No
  54. Original source medium                   : Blu-ray
  55. Audio #2
  56. ID                                       : 3
  57. Format                                   : AC-3
  58. Format/Info                              : Audio Coding 3
  59. Commercial name                          : Dolby Digital
  60. Codec ID                                 : A_AC3
  61. Duration                                 : 2 h 0 min
  62. Bit rate mode                            : Constant
  63. Bit rate                                 : 640 kb/s
  64. Channel(s)                               : 2 channels
  65. Channel layout                           : L R
  66. Sampling rate                            : 48.0 kHz
  67. Frame rate                               : 31.250 FPS (1536 SPF)
  68. Compression mode                         : Lossy
  69. Stream size                              : 550 MiB (1%)
  70. Title                                    : DD 2.0
  71. Language                                 : English
  72. Service kind                             : Complete Main
  73. Default                                  : No
  74. Forced                                   : No
  75. Audio #3
  76. ID                                       : 4
  77. ID in the original source medium         : 4353 (0x1101)
  78. Format                                   : DTS
  79. Format/Info                              : Digital Theater Systems
  80. Codec ID                                 : A_DTS
  81. Duration                                 : 2 h 0 min
  82. Bit rate mode                            : Constant
  83. Bit rate                                 : 768 kb/s
  84. Channel(s)                               : 2 channels
  85. Channel layout                           : L R
  86. Sampling rate                            : 48.0 kHz
  87. Frame rate                               : 93.750 FPS (512 SPF)
  88. Bit depth                                : 24 bits
  89. Compression mode                         : Lossy
  90. Stream size                              : 660 MiB (1%)
  91. Title                                    : DTS 2.0
  92. Language                                 : French
  93. Default                                  : No
  94. Forced                                   : No
  95. Original source medium                   : Blu-ray
  96. Audio #4
  97. ID                                       : 5
  98. ID in the original source medium         : 4354 (0x1102)
  99. Format                                   : DTS
  100. Format/Info                              : Digital Theater Systems
  101. Codec ID                                 : A_DTS
  102. Duration                                 : 2 h 0 min
  103. Bit rate mode                            : Constant
  104. Bit rate                                 : 447 kb/s
  105. Channel(s)                               : 2 channels
  106. Channel layout                           : L R
  107. Sampling rate                            : 48.0 kHz
  108. Frame rate                               : 93.750 FPS (512 SPF)
  109. Bit depth                                : 24 bits
  110. Compression mode                         : Lossy
  111. Stream size                              : 384 MiB (1%)
  112. Title                                    : DTS 2.0
  113. Language                                 : Spanish
  114. Default                                  : No
  115. Forced                                   : No
  116. Original source medium                   : Blu-ray
  117. Audio #5
  118. ID                                       : 6
  119. ID in the original source medium         : 4355 (0x1103)
  120. Format                                   : DTS
  121. Format/Info                              : Digital Theater Systems
  122. Codec ID                                 : A_DTS
  123. Duration                                 : 2 h 0 min
  124. Bit rate mode                            : Constant
  125. Bit rate                                 : 447 kb/s
  126. Channel(s)                               : 2 channels
  127. Channel layout                           : L R
  128. Sampling rate                            : 48.0 kHz
  129. Frame rate                               : 93.750 FPS (512 SPF)
  130. Bit depth                                : 24 bits
  131. Compression mode                         : Lossy
  132. Stream size                              : 384 MiB (1%)
  133. Title                                    : DTS 2.0
  134. Language                                 : Spanish
  135. Default                                  : No
  136. Forced                                   : No
  137. Original source medium                   : Blu-ray
  138. Audio #6
  139. ID                                       : 7
  140. ID in the original source medium         : 4356 (0x1104)
  141. Format                                   : DTS
  142. Format/Info                              : Digital Theater Systems
  143. Codec ID                                 : A_DTS
  144. Duration                                 : 2 h 0 min
  145. Bit rate mode                            : Constant
  146. Bit rate                                 : 447 kb/s
  147. Channel(s)                               : 2 channels
  148. Channel layout                           : L R
  149. Sampling rate                            : 48.0 kHz
  150. Frame rate                               : 93.750 FPS (512 SPF)
  151. Bit depth                                : 24 bits
  152. Compression mode                         : Lossy
  153. Stream size                              : 384 MiB (1%)
  154. Title                                    : DTS 2.0
  155. Language                                 : Japanese
  156. Default                                  : No
  157. Forced                                   : No
  158. Original source medium                   : Blu-ray
  159. Audio #7
  160. ID                                       : 8
  161. ID in the original source medium         : 4357 (0x1105)
  162. Format                                   : DTS
  163. Format/Info                              : Digital Theater Systems
  164. Codec ID                                 : A_DTS
  165. Duration                                 : 2 h 0 min
  166. Bit rate mode                            : Constant
  167. Bit rate                                 : 447 kb/s
  168. Channel(s)                               : 2 channels
  169. Channel layout                           : L R
  170. Sampling rate                            : 48.0 kHz
  171. Frame rate                               : 93.750 FPS (512 SPF)
  172. Bit depth                                : 24 bits
  173. Compression mode                         : Lossy
  174. Stream size                              : 384 MiB (1%)
  175. Title                                    : DTS 2.0
  176. Language                                 : German
  177. Default                                  : No
  178. Forced                                   : No
  179. Original source medium                   : Blu-ray
  180. Audio #8
  181. ID                                       : 9
  182. ID in the original source medium         : 4358 (0x1106)
  183. Format                                   : DTS
  184. Format/Info                              : Digital Theater Systems
  185. Codec ID                                 : A_DTS
  186. Duration                                 : 2 h 0 min
  187. Bit rate mode                            : Constant
  188. Bit rate                                 : 447 kb/s
  189. Channel(s)                               : 2 channels
  190. Channel layout                           : L R
  191. Sampling rate                            : 48.0 kHz
  192. Frame rate                               : 93.750 FPS (512 SPF)
  193. Bit depth                                : 24 bits
  194. Compression mode                         : Lossy
  195. Stream size                              : 384 MiB (1%)
  196. Title                                    : DTS 2.0
  197. Language                                 : Italian
  198. Default                                  : No
  199. Forced                                   : No
  200. Original source medium                   : Blu-ray
  201. Text #1
  202. ID                                       : 10
  203. Format                                   : UTF-8
  204. Codec ID                                 : S_TEXT/UTF8
  205. Codec ID/Info                            : UTF-8 Plain Text
  206. Duration                                 : 1 h 58 min
  207. Bit rate                                 : 59 b/s
  208. Count of elements                        : 1467
  209. Stream size                              : 51.5 KiB (0%)
  210. Language                                 : English
  211. Default                                  : Yes
  212. Forced                                   : No
  213. Text #2
  214. ID                                       : 11
  215. Format                                   : UTF-8
  216. Codec ID                                 : S_TEXT/UTF8
  217. Codec ID/Info                            : UTF-8 Plain Text
  218. Duration                                 : 1 h 58 min
  219. Bit rate                                 : 61 b/s
  220. Count of elements                        : 1535
  221. Stream size                              : 53.0 KiB (0%)
  222. Title                                    : SDH
  223. Language                                 : English
  224. Default                                  : No
  225. Forced                                   : No
  226. Text #3
  227. ID                                       : 12
  228. ID in the original source medium         : 4768 (0x12A0)
  229. Format                                   : PGS
  230. Muxing mode                              : zlib
  231. Codec ID                                 : S_HDMV/PGS
  232. Codec ID/Info                            : Picture based subtitle format used on BDs/HD-DVDs
  233. Duration                                 : 1 h 58 min
  234. Bit rate                                 : 41.4 kb/s
  235. Count of elements                        : 3084
  236. Stream size                              : 35.1 MiB (0%)
  237. Language                                 : English
  238. Default                                  : No
  239. Forced                                   : No
  240. Original source medium                   : Blu-ray
  241. Text #4
  242. ID                                       : 13
  243. ID in the original source medium         : 4769 (0x12A1)
  244. Format                                   : PGS
  245. Muxing mode                              : zlib
  246. Codec ID                                 : S_HDMV/PGS
  247. Codec ID/Info                            : Picture based subtitle format used on BDs/HD-DVDs
  248. Duration                                 : 1 h 59 min
  249. Bit rate                                 : 33.1 kb/s
  250. Count of elements                        : 2442
  251. Stream size                              : 28.2 MiB (0%)
  252. Language                                 : French
  253. Default                                  : No
  254. Forced                                   : No
  255. Original source medium                   : Blu-ray
  256. Text #5
  257. ID                                       : 14
  258. ID in the original source medium         : 4770 (0x12A2)
  259. Format                                   : PGS
  260. Muxing mode                              : zlib
  261. Codec ID                                 : S_HDMV/PGS
  262. Codec ID/Info                            : Picture based subtitle format used on BDs/HD-DVDs
  263. Duration                                 : 1 h 59 min
  264. Bit rate                                 : 35.4 kb/s
  265. Count of elements                        : 2448
  266. Stream size                              : 30.3 MiB (0%)
  267. Language                                 : Spanish
  268. Default                                  : No
  269. Forced                                   : No
  270. Original source medium                   : Blu-ray
  271. Text #6
  272. ID                                       : 15
  273. ID in the original source medium         : 4771 (0x12A3)
  274. Format                                   : PGS
  275. Muxing mode                              : zlib
  276. Codec ID                                 : S_HDMV/PGS
  277. Codec ID/Info                            : Picture based subtitle format used on BDs/HD-DVDs
  278. Duration                                 : 1 h 58 min
  279. Bit rate                                 : 36.4 kb/s
  280. Count of elements                        : 2691
  281. Stream size                              : 30.8 MiB (0%)
  282. Language                                 : Spanish
  283. Default                                  : No
  284. Forced                                   : No
  285. Original source medium                   : Blu-ray
  286. Text #7
  287. ID                                       : 16
  288. ID in the original source medium         : 4772 (0x12A4)
  289. Format                                   : PGS
  290. Muxing mode                              : zlib
  291. Codec ID                                 : S_HDMV/PGS
  292. Codec ID/Info                            : Picture based subtitle format used on BDs/HD-DVDs
  293. Duration                                 : 1 h 58 min
  294. Bit rate                                 : 19.6 kb/s
  295. Count of elements                        : 2408
  296. Stream size                              : 16.6 MiB (0%)
  297. Language                                 : Japanese
  298. Default                                  : No
  299. Forced                                   : No
  300. Original source medium                   : Blu-ray
  301. Text #8
  302. ID                                       : 17
  303. ID in the original source medium         : 4773 (0x12A5)
  304. Format                                   : PGS
  305. Muxing mode                              : zlib
  306. Codec ID                                 : S_HDMV/PGS
  307. Codec ID/Info                            : Picture based subtitle format used on BDs/HD-DVDs
  308. Duration                                 : 1 h 59 min
  309. Bit rate                                 : 37.3 kb/s
  310. Count of elements                        : 2440
  311. Stream size                              : 31.8 MiB (0%)
  312. Language                                 : German
  313. Default                                  : No
  314. Forced                                   : No
  315. Original source medium                   : Blu-ray
  316. Text #9
  317. ID                                       : 18
  318. ID in the original source medium         : 4774 (0x12A6)
  319. Format                                   : PGS
  320. Muxing mode                              : zlib
  321. Codec ID                                 : S_HDMV/PGS
  322. Codec ID/Info                            : Picture based subtitle format used on BDs/HD-DVDs
  323. Duration                                 : 1 h 59 min
  324. Bit rate                                 : 33.2 kb/s
  325. Count of elements                        : 2442
  326. Stream size                              : 28.3 MiB (0%)
  327. Language                                 : Italian
  328. Default                                  : No
  329. Forced                                   : No
  330. Original source medium                   : Blu-ray
  331. Text #10
  332. ID                                       : 19
  333. ID in the original source medium         : 4775 (0x12A7)
  334. Format                                   : PGS
  335. Muxing mode                              : zlib
  336. Codec ID                                 : S_HDMV/PGS
  337. Codec ID/Info                            : Picture based subtitle format used on BDs/HD-DVDs
  338. Duration                                 : 1 h 59 min
  339. Bit rate                                 : 33.5 kb/s
  340. Count of elements                        : 2438
  341. Stream size                              : 28.6 MiB (0%)
  342. Language                                 : Dutch
  343. Default                                  : No
  344. Forced                                   : No
  345. Original source medium                   : Blu-ray
  346. Text #11
  347. ID                                       : 20
  348. ID in the original source medium         : 4776 (0x12A8)
  349. Format                                   : PGS
  350. Muxing mode                              : zlib
  351. Codec ID                                 : S_HDMV/PGS
  352. Codec ID/Info                            : Picture based subtitle format used on BDs/HD-DVDs
  353. Duration                                 : 1 h 59 min
  354. Bit rate                                 : 35.3 kb/s
  355. Count of elements                        : 2442
  356. Stream size                              : 30.1 MiB (0%)
  357. Language                                 : Danish
  358. Default                                  : No
  359. Forced                                   : No
  360. Original source medium                   : Blu-ray
  361. Text #12
  362. ID                                       : 21
  363. ID in the original source medium         : 4777 (0x12A9)
  364. Format                                   : PGS
  365. Muxing mode                              : zlib
  366. Codec ID                                 : S_HDMV/PGS
  367. Codec ID/Info                            : Picture based subtitle format used on BDs/HD-DVDs
  368. Duration                                 : 1 h 59 min
  369. Bit rate                                 : 32.6 kb/s
  370. Count of elements                        : 2438
  371. Stream size                              : 27.9 MiB (0%)
  372. Language                                 : Finnish
  373. Default                                  : No
  374. Forced                                   : No
  375. Original source medium                   : Blu-ray
  376. Text #13
  377. ID                                       : 22
  378. ID in the original source medium         : 4778 (0x12AA)
  379. Format                                   : PGS
  380. Muxing mode                              : zlib
  381. Codec ID                                 : S_HDMV/PGS
  382. Codec ID/Info                            : Picture based subtitle format used on BDs/HD-DVDs
  383. Duration                                 : 1 h 59 min
  384. Bit rate                                 : 32.1 kb/s
  385. Count of elements                        : 2442
  386. Stream size                              : 27.4 MiB (0%)
  387. Language                                 : Norwegian
  388. Default                                  : No
  389. Forced                                   : No
  390. Original source medium                   : Blu-ray
  391. Text #14
  392. ID                                       : 23
  393. ID in the original source medium         : 4779 (0x12AB)
  394. Format                                   : PGS
  395. Muxing mode                              : zlib
  396. Codec ID                                 : S_HDMV/PGS
  397. Codec ID/Info                            : Picture based subtitle format used on BDs/HD-DVDs
  398. Duration                                 : 1 h 59 min
  399. Bit rate                                 : 33.3 kb/s
  400. Count of elements                        : 2442
  401. Stream size                              : 28.5 MiB (0%)
  402. Language                                 : Swedish
  403. Default                                  : No
  404. Forced                                   : No
  405. Original source medium                   : Blu-ray
  406. Text #15
  407. ID                                       : 24
  408. ID in the original source medium         : 4780 (0x12AC)
  409. Format                                   : PGS
  410. Muxing mode                              : zlib
  411. Codec ID                                 : S_HDMV/PGS
  412. Codec ID/Info                            : Picture based subtitle format used on BDs/HD-DVDs
  413. Duration                                 : 1 h 22 min
  414. Bit rate                                 : 426 b/s
  415. Count of elements                        : 28
  416. Stream size                              : 258 KiB (0%)
  417. Language                                 : French
  418. Default                                  : No
  419. Forced                                   : No
  420. Original source medium                   : Blu-ray
  421. Text #16
  422. ID                                       : 25
  423. ID in the original source medium         : 4781 (0x12AD)
  424. Format                                   : PGS
  425. Muxing mode                              : zlib
  426. Codec ID                                 : S_HDMV/PGS
  427. Codec ID/Info                            : Picture based subtitle format used on BDs/HD-DVDs
  428. Duration                                 : 1 h 22 min
  429. Bit rate                                 : 404 b/s
  430. Count of elements                        : 28
  431. Stream size                              : 245 KiB (0%)
  432. Language                                 : Spanish
  433. Default                                  : No
  434. Forced                                   : No
  435. Original source medium                   : Blu-ray
  436. Text #17
  437. ID                                       : 26
  438. ID in the original source medium         : 4782 (0x12AE)
  439. Format                                   : PGS
  440. Muxing mode                              : zlib
  441. Codec ID                                 : S_HDMV/PGS
  442. Codec ID/Info                            : Picture based subtitle format used on BDs/HD-DVDs
  443. Duration                                 : 1 h 2 min
  444. Bit rate                                 : 487 b/s
  445. Count of elements                        : 24
  446. Stream size                              : 223 KiB (0%)
  447. Language                                 : Spanish
  448. Default                                  : No
  449. Forced                                   : No
  450. Original source medium                   : Blu-ray
  451. Text #18
  452. ID                                       : 27
  453. ID in the original source medium         : 4783 (0x12AF)
  454. Format                                   : PGS
  455. Muxing mode                              : zlib
  456. Codec ID                                 : S_HDMV/PGS
  457. Codec ID/Info                            : Picture based subtitle format used on BDs/HD-DVDs
  458. Duration                                 : 1 h 4 min
  459. Bit rate                                 : 376 b/s
  460. Count of elements                        : 22
  461. Stream size                              : 177 KiB (0%)
  462. Language                                 : Japanese
  463. Default                                  : No
  464. Forced                                   : No
  465. Original source medium                   : Blu-ray
  466. Text #19
  467. ID                                       : 28
  468. ID in the original source medium         : 4784 (0x12B0)
  469. Format                                   : PGS
  470. Muxing mode                              : zlib
  471. Codec ID                                 : S_HDMV/PGS
  472. Codec ID/Info                            : Picture based subtitle format used on BDs/HD-DVDs
  473. Duration                                 : 1 h 22 min
  474. Bit rate                                 : 397 b/s
  475. Count of elements                        : 26
  476. Stream size                              : 240 KiB (0%)
  477. Language                                 : German
  478. Default                                  : No
  479. Forced                                   : No
  480. Original source medium                   : Blu-ray
  481. Text #20
  482. ID                                       : 29
  483. ID in the original source medium         : 4785 (0x12B1)
  484. Format                                   : PGS
  485. Muxing mode                              : zlib
  486. Codec ID                                 : S_HDMV/PGS
  487. Codec ID/Info                            : Picture based subtitle format used on BDs/HD-DVDs
  488. Duration                                 : 1 h 22 min
  489. Bit rate                                 : 450 b/s
  490. Count of elements                        : 28
  491. Stream size                              : 273 KiB (0%)
  492. Language                                 : Italian
  493. Default                                  : No
  494. Forced                                   : No
  495. Original source medium                   : Blu-ray
  496. Menu
  497. 00:00:00.000                             : en:Chapter 01
  498. 00:10:00.016                             : en:Chapter 02
  499. 00:14:03.592                             : en:Chapter 03
  500. 00:19:57.487                             : en:Chapter 04
  501. 00:30:22.487                             : en:Chapter 05
  502. 00:33:35.680                             : en:Chapter 06
  503. 00:41:30.070                             : en:Chapter 07
  504. 00:46:29.244                             : en:Chapter 08
  505. 00:57:25.984                             : en:Chapter 09
  506. 01:01:03.284                             : en:Chapter 10
  507. 01:07:10.234                             : en:Chapter 11
  508. 01:14:28.714                             : en:Chapter 12
  509. 01:29:11.346                             : en:Chapter 13
  510. 01:37:39.728                             : en:Chapter 14
  511. 01:45:25.777                             : en:Chapter 15
  512. 01:53:51.115                             : en:Chapter 16
  513. 01:56:54.048                             : en:Chapter 17
  514. 01:59:08.891                             : en:Chapter 18
复制代码




                                       
                                       

                                       
                                       
                                       




回复

使用道具 举报

懒得打字嘛,点击右侧快捷回复 【右侧内容,后台自定义】
您需要登录后才可以回帖 登录 | 立即加入

本版积分规则

Archiver| |网站地图

Copyright © 2024 Comsenz Inc. Powered by 蓝光电影网

本站内容由用户自主分享和转载自互联网,转载目的在于传递更多信息,并不代表本网赞同其观点和对其真实性负责。

如有侵权、违反国家法律政策行为,请联系我们,我们会第一时间及时清除和处理!

举报反馈邮箱:4k1080.com@gmail.com

快速回复 返回顶部 返回列表