找回密码

查看: 1538|回复: 0

[喜剧] 等待黎明 The.Night.Before.The.Exams.2006.ITALIAN.1080p.BluRay.x264.DD5.1-HANDJOB 8.50GB

[复制链接]
蓝光币
2027
发表于 2022-5-8 19:56:26 | 显示全部楼层 |阅读模式


◎译  名 期待拂晓
◎片  名 Notte prima degli esami
◎年  代 2006
◎产  地 意大利
◎类  别 笑剧
◎语  言 意大利语
◎上映日期 2006-07-26
◎IMDb链接 https://www.imdb.com/title/tt0772187/
◎豆瓣评分 7.6/10 (384人评价)
◎豆瓣链接 https://movie.douban.com/subject/1987212/
◎片  长 100分钟
◎导  演 法乌斯托·布里齐 Fausto Brizzi (id:1041922)
◎编  剧 法乌斯托·布里齐 Fausto Brizzi (id:1041922)
       马尔科·马塔尼 Marco Martani (id:1020494)
       Giannandrea Pecorelli Giannandrea Pecorelli (id:1294190)
       马西米里亚诺·布鲁诺 Massimiliano Bruno (id:1020895)
◎演  员 乔治·法莱蒂 Giorgio Faletti (id:1037664)
       克里斯蒂安娜·卡波通蒂 Cristiana Capotondi (id:1050403)
        Valentina Idini (id:1242521)
       丽奥诺拉·布瑞丽娅多蕊 Eleonora Brigliadori (id:1006193)
       马蒂奥·伍季亚 Matteo Urzia (id:1155833)
       西亚拉·马斯塔丽 Chiara Mastalli (id:1022868)
       恩佐·萨勒维 Enzo Salvi (id:1025719)
       尼可拉斯·瓦波里蒂斯 Nicolas Vaporidis (id:1037212)
       瓦莱莉·法布里兹 Valeria Fabrizi (id:1042387)
       爱德华多·科斯塔 Edoardo Costa (id:1074230)
       Sarah Maestri Sarah Maestri (id:1114832)
       丹妮埃拉·波吉 Daniela Poggi (id:1133046)
       Ric Ric (id:1142785)
       阿妮妲·扎格利亚 Anita Zagaria (id:1323553)
       富尔维奥·卢奇萨诺 Fulvio Lucisano (id:1025787)
       Giannandrea Pecorelli Giannandrea Pecorelli (id:1294190)
       费德里卡·卢齐萨诺 Federica Lucisano (id:1290418)
       布鲁诺·赞布里尼 Bruno Zambrini (id:1301621)
       马切洛·蒙塔西 Marcello Montarsi (id:1292354)
       卢西亚纳·潘多费利 Luciana Pandolfelli (id:1034805)
       丹佛·比蒂 Denver Beattie (id:1199556)
       Beatrice Scarpato Beatrice Scarpato (id:1296805)
       莫妮卡·西梅奥尼 Monica Simeone (id:1021934)
       丹佛·比蒂 Denver Beattie (id:1199556)
       亚历山德罗·帕斯库佐 Alessandro Pascuzzo (id:1209102)
       Giuseppe Squillaci Giuseppe Squillaci (id:1312602)
◎简  介

  本以为是中学的最初一天可以宣泄一些积存几年的怨气,但是却是搬起石头砸了自己的脚,卢卡·莫里纳利不但没有羞辱到这个被他们称作“疯子”的教员,反倒由于自己最初一门没有经过的考试而受之与痛处。卢卡预备搏命要过这一关,一帮损友让他无意温习,也让他无意中结识了心爱女孩克劳迪娅。不意,这个克劳迪娅恰恰就是这个死对头教员的女儿……
  1. Video
  2. ID                                       : 1
  3. Format                                   : AVC
  4. Format/Info                              : Advanced Video Codec
  5. Format profile                           : [email protected]
  6. Format settings                          : CABAC / 5 Ref Frames
  7. Format settings, CABAC                   : Yes
  8. Format settings, Reference frames        : 5 frames
  9. Codec ID                                 : V_MPEG4/ISO/AVC
  10. Duration                                 : 1 h 43 min
  11. Bit rate                                 : 11.1 Mb/s
  12. Width                                    : 1 916 pixels
  13. Height                                   : 818 pixels
  14. Display aspect ratio                     : 2.35:1
  15. Frame rate mode                          : Constant
  16. Frame rate                               : 24.000 FPS
  17. Color space                              : YUV
  18. Chroma subsampling                       : 4:2:0
  19. Bit depth                                : 8 bits
  20. Scan type                                : Progressive
  21. Bits/(Pixel*Frame)                       : 0.294
  22. Stream size                              : 8.02 GiB (94%)
  23. Writing library                          : x264 core 164 r3065 ae03d92
  24. Encoding settings                        : cabac=1 / ref=5 / deblock=1:-3:-3 / analyse=0x3:0x133 / me=umh / subme=10 / psy=1 / psy_rd=1.00:0.00 / mixed_ref=1 / me_range=32 / chroma_me=1 / trellis=2 / 8x8dct=1 / cqm=0 / deadzone=21,11 / fast_pskip=0 / chroma_qp_offset=-2 / threads=26 / lookahead_threads=6 / sliced_threads=0 / nr=0 / decimate=0 / interlaced=0 / bluray_compat=0 / constrained_intra=0 / bframes=16 / b_pyramid=2 / b_adapt=2 / b_bias=0 / direct=3 / weightb=1 / open_gop=0 / weightp=2 / keyint=240 / keyint_min=24 / scenecut=40 / intra_refresh=0 / rc_lookahead=60 / rc=crf / mbtree=0 / crf=17.2 / qcomp=0.60 / qpmin=0 / qpmax=69 / qpstep=4 / vbv_maxrate=62500 / vbv_bufsize=78125 / crf_max=0.0 / nal_hrd=none / filler=0 / ip_ratio=1.40 / pb_ratio=1.30 / aq=2:1.00
  25. Default                                  : Yes
  26. Forced                                   : No
  27. Color range                              : Limited
  28. Color primaries                          : BT.709
  29. Transfer characteristics                 : BT.709
  30. Matrix coefficients                      : BT.709
  31. Audio
  32. ID                                       : 2
  33. Format                                   : AC-3
  34. Format/Info                              : Audio Coding 3
  35. Commercial name                          : Dolby Digital
  36. Codec ID                                 : A_AC3
  37. Duration                                 : 1 h 43 min
  38. Bit rate mode                            : Constant
  39. Bit rate                                 : 640 kb/s
  40. Channel(s)                               : 6 channels
  41. Channel layout                           : L R C LFE Ls Rs
  42. Sampling rate                            : 48.0 kHz
  43. Frame rate                               : 31.250 FPS (1536 SPF)
  44. Compression mode                         : Lossy
  45. Stream size                              : 476 MiB (5%)
  46. Language                                 : Italian
  47. Service kind                             : Complete Main
  48. Default                                  : Yes
  49. Forced                                   : No
  50. Text #1
  51. ID                                       : 3
  52. Format                                   : UTF-8
  53. Codec ID                                 : S_TEXT/UTF8
  54. Codec ID/Info                            : UTF-8 Plain Text
  55. Duration                                 : 1 h 39 min
  56. Bit rate                                 : 53 b/s
  57. Count of elements                        : 1247
  58. Stream size                              : 39.1 KiB (0%)
  59. Language                                 : English
  60. Default                                  : Yes
  61. Forced                                   : No
  62. Text #2
  63. ID                                       : 4
  64. Format                                   : PGS
  65. Muxing mode                              : zlib
  66. Codec ID                                 : S_HDMV/PGS
  67. Codec ID/Info                            : Picture based subtitle format used on BDs/HD-DVDs
  68. Duration                                 : 1 h 38 min
  69. Bit rate                                 : 57.0 kb/s
  70. Count of elements                        : 2516
  71. Stream size                              : 40.3 MiB (0%)
  72. Language                                 : Italian
  73. Default                                  : No
  74. Forced                                   : No
  75. Menu
  76. 00:00:00.000                             : :1. Intro
  77. 00:08:21.250                             : :2. Anyone Know Who\'s Party This Is?...?
  78. 00:18:41.083                             : :3. Grandma and Ludovico
  79. 00:26:09.833                             : :4. Yesss!
  80. 00:31:25.625                             : :5. Don\'t Think This Will Change Anything
  81. 00:44:06.833                             : :6. Chicca, I brought you a gift
  82. 00:51:34.000                             : :7. I\'d Like To See You...
  83. 01:02:41.042                             : :8. And You With... Cesare?
  84. 01:13:33.833                             : :9. Who Ensures Us These Are The Real Topics
  85. 01:24:04.917                             : :10. The Night Before the Exam... It\'s Weird
  86. 01:28:03.292                             : :11. Luca... I Saw Claudia
  87. 01:36:40.250                             : :12. End Credits
复制代码







                                       
                                       

                                       
                                       
                                       




回复

使用道具 举报

懒得打字嘛,点击右侧快捷回复 【右侧内容,后台自定义】
您需要登录后才可以回帖 登录 | 立即加入

本版积分规则

Archiver| |网站地图

Copyright © 2024 Comsenz Inc. Powered by 蓝光电影网

本站内容由用户自主分享和转载自互联网,转载目的在于传递更多信息,并不代表本网赞同其观点和对其真实性负责。

如有侵权、违反国家法律政策行为,请联系我们,我们会第一时间及时清除和处理!

举报反馈邮箱:4k1080.com@gmail.com

快速回复 返回顶部 返回列表