找回密码

蓝光电影网

查看: 95|回复: 3

[2160p-WEB] 百鸟朝凤[国语配音/中文字幕].Song.of.the.Phoenix.2013.2160p.WEB-DL.H265.AAC-CTRLWEB 12.33GB

[复制链接]
蓝光币
3
发表于 4 天前 | 显示全部楼层 |阅读模式
百鸟朝凤[国语配音/中笔墨幕].Song.of.the.Phoenix.2013.2160p.WEB-DL.H265.AAC-CTRLWEB 12.33GB-1.jpeg

◎译  名 百鸟朝凤 / Song of the Phoenix
◎年  代 2013
◎产  地 中国大陆
◎类  别 剧情 / 音乐
◎语  言 汉语普通话
◎上映日期 2016-05-06(中国大陆) / 2017-04-20(中国大陆重映) / 2013-09-25(金鸡百花电影节)
◎IMDb链接 https://www.imdb.com/title/tt3214392/
◎豆瓣评分 8.3/10 (279054人评价)
◎豆瓣链接 https://movie.douban.com/subject/10831445/
◎片  长 108分钟
◎导  演 吴天明 Tianming Wu
◎编  剧 吴天明 Tianming Wu
       罗雪莹 Xue-Ying Luo
       肖江虹 Jianghong Xiao
◎演  员 陶泽如 Zeru Tao
       李岷城 Mincheng Li
       嵇波 Bo Ji
       胡先煦 Xianxu Hu
       郑伟 Wei Zheng
       迟蓬 Peng Chi
       袁中方 Zhongfang Yuan
       墨阳 Yang Mo
       张喜前 Xiqian Zhang
       谭群 Qun Tan
       王长玲 Changling Wang
       周天羽 Tianyu Zhou
       张双成 Shuangcheng Zhang
       许还山 Huanshan Xu
       陈进 Jin Chen
       吴天明 Tianming Wu
       方励 Li Fang
       张大龙 Dalong Zhang
       王天麟 Tianlin Wang
       王长锐 Changrui Wang
       谢政辉 Zhenghui Xie
◎简  介
  老一代唢呐艺人焦三爷(陶泽如 饰)是个外冷内热的老人,看起来严厉呆板,实在心胸热血。影片表示了在社会变化、民心急躁的年月里,新老两代唢呐艺报酬了信心的苦守所发生的真挚的师徒情、父子情、兄弟情。                                    
                                本片改编自肖江虹同名小说。
◎获奖情况 (共9项)
  第29届中国电影金鸡奖 (2013)
  最好故事片(提名)
  最好男配角(提名)
   └──陶泽如
  最好女配角(提名)
   └──迟蓬
  第15届中国电影华表奖 (2013)
  优异电影音乐奖
   └──张大龙
  优异农村题材影片
  第21届北京大门生电影节 (2014)
  最好新人奖(提名)
   └──李岷城
  组委会大奖
  第3届豆瓣电影年度榜单 (2016)
  评分最高的华语电影(提名)
  5月最受关注电影(提名)
  1. ##### MediaInfo ######
  2. General
  3. Complete name                            : Song.of.the.Phoenix.2013.2160p.WEB-DL.H265.AAC-CTRLWEB.mp4
  4. Format                                   : MPEG-4
  5. Format profile                           : Base Media
  6. Codec ID                                 : isom (isom/iso2/mp41)
  7. File size                                : 12.3 GiB
  8. Duration                                 : 1 h 43 min
  9. Overall bit rate mode                    : Variable
  10. Overall bit rate                         : 17.0 Mb/s
  11. Recorded date                            : 2022-05-09T13:39:15.7933008+08:00
  12. Writing application                      : Lavf59.16.100
  13. Video
  14. ID                                       : 1
  15. Format                                   : HEVC
  16. Format/Info                              : High Efficiency Video Coding
  17. Format profile                           : [email protected]@High
  18. Codec ID                                 : hev1
  19. Codec ID/Info                            : High Efficiency Video Coding
  20. Duration                                 : 1 h 43 min
  21. Bit rate                                 : 16.9 Mb/s
  22. Width                                    : 3 840 pixels
  23. Height                                   : 1 616 pixels
  24. Display aspect ratio                     : 2.40:1
  25. Frame rate mode                          : Constant
  26. Frame rate                               : 25.000 FPS
  27. Color space                              : YUV
  28. Chroma subsampling                       : 4:2:0
  29. Bit depth                                : 8 bits
  30. Bits/(Pixel*Frame)                       : 0.109
  31. Stream size                              : 12.2 GiB (99%)
  32. Codec configuration box                  : hvcC
  33. Audio
  34. ID                                       : 2
  35. Format                                   : AAC LC
  36. Format/Info                              : Advanced Audio Codec Low Complexity
  37. Codec ID                                 : mp4a-40-2
  38. Duration                                 : 1 h 43 min
  39. Bit rate mode                            : Variable
  40. Bit rate                                 : 126 kb/s / 126 kb/s
  41. Channel(s)                               : 2 channels
  42. Channel layout                           : L R
  43. Sampling rate                            : 44.1 kHz
  44. Frame rate                               : 43.066 FPS (1024 SPF)
  45. Compression mode                         : Lossy
  46. Stream size                              : 92.3 MiB (1%)
  47. Default                                  : Yes
  48. Alternate group                          : 1
复制代码


百鸟朝凤[国语配音/中笔墨幕].Song.of.the.Phoenix.2013.2160p.WEB-DL.H265.AAC-CTRLWEB 12.33GB-2.jpeg
百鸟朝凤[国语配音/中笔墨幕].Song.of.the.Phoenix.2013.2160p.WEB-DL.H265.AAC-CTRLWEB 12.33GB-3.jpeg
百鸟朝凤[国语配音/中笔墨幕].Song.of.the.Phoenix.2013.2160p.WEB-DL.H265.AAC-CTRLWEB 12.33GB-4.jpeg
百鸟朝凤[国语配音/中笔墨幕].Song.of.the.Phoenix.2013.2160p.WEB-DL.H265.AAC-CTRLWEB 12.33GB-5.jpeg










回复

使用道具 举报

蓝光币
1699
发表于 4 天前 | 显示全部楼层
百鳥朝鳳4k
回复 支持 反对

使用道具 举报

蓝光币
14
发表于 4 天前 | 显示全部楼层

既然你诚信诚意的推荐了,那我就勉为其难的看看吧!蓝光电影网不走平凡路。
回复 支持 反对

使用道具 举报

蓝光币
1699
发表于 4 天前 | 显示全部楼层
百鳥朝鳳4k
回复 支持 反对

使用道具 举报

懒得打字嘛,点击右侧快捷回复 【右侧内容,后台自定义】
您需要登录后才可以回帖 登录 | 立即加入

本版积分规则

Archiver|小黑屋| 蓝光电影网 |网站地图

Copyright © 2021 Comsenz Inc. Powered by 蓝光电影网

蓝光电影网

本站内容由用户自主分享和转载自互联网,转载目的在于传递更多信息,并不代表本网赞同其观点和对其真实性负责。

如有侵权、违反国家法律政策行为,请联系我们,我们会第一时间及时清除和处理!

举报反馈邮箱:[email protected]

快速回复 返回顶部 返回列表