找回密码

蓝光电影网

查看: 116|回复: 0

[2160p-WEB] 迷失之城[杜比视界版本][无字片源].The.Lost.City.2022.2160p.WEB-DL.DDP5.1.Atmos.DV.H.265-CTRLWEB 11.67GB

[复制链接]
蓝光币
4
发表于 4 天前 | 显示全部楼层 |阅读模式
丢失之城[杜比视界版本][无字片源].The.Lost.City.2022.2160p.WEB-DL.DDP5.1.Atmos.DV.H.265-CTRLWEB 11.67GB-1.jpeg

◎译  名 丢失之城 / 丢失D城 / Lost City of D / 失惊无神闯谜城(港) / 失落谜城(台)
◎片  名 The Lost City
◎年  代 2022
◎产  地 美国
◎类  别 笑剧 / 行动 / 冒险
◎语  言 英语
◎上映日期 2022-03-25(美国)
◎IMDb链接 https://www.imdb.com/title/tt13320622/
◎豆瓣评分 6.1/10 (774人评价)
◎豆瓣链接 https://movie.douban.com/subject/35303842/
◎片  长 112分钟
◎导  演 艾伦·尼 Aaron Nee
       亚当·尼 Adam Nee
◎编  剧 奥伦·尤济尔 Oren Uziel
       达纳·福克斯 Dana Fox
       亚当·尼 Adam Nee
       艾伦·尼 Aaron Nee
       赛斯·戈登 Seth Gordon
◎演  员 桑德拉·布洛克 Sandra Bullock
       查宁·塔图姆 Channing Tatum
       丹尼尔·雷德克里夫 Daniel Radcliffe
       达明·乔伊·伦道夫 Da'Vine Joy Randolph
       布拉德·皮特 Brad Pitt
       奥斯卡·努内斯 Oscar Nu?ez
       帕蒂·哈里森 Patti Harrison
       杨伯文 Bowen Yang
       乔安·普林格尔 Joan Pringle
       赫克托·阿尼巴尔 Héctor Aníbal
       托马斯·福布斯·约翰逊 Thomas Forbes-Johnson
       斯莱·刘易斯 Sli Lewis
       亚当·尼 Adam Nee
       雷蒙德·李 Raymond Lee
       安东尼·阿尔瓦雷斯 Anthony Alvarez
       马西·哈罗 Marcy Jarreau
       瑞恩·贾德 Ryan Judd
       莉莎·蔡辛 Liza Chasin
       桑德拉·布洛克 Sandra Bullock
       赛斯·戈登 Seth Gordon
       玛琳·斯图尔特 Marlene Stewart
◎简  介
  洛蕾塔·塞琪(桑德拉·布洛克 饰)是一位才华横溢但与世隔断的作家。在她的畅销恋爱冒险小说里,总会出现很多奇异的地方。而作为本书的封面模特,艾伦(查宁·塔图姆 饰)平生都在努力于展现书中豪杰脚色“达什”的小我魅力。 ” 在与艾伦一路宣传新书时,洛雷塔被一位怪僻的亿万富翁(丹尼尔·雷德克里夫 饰)绑架。这位亿万富翁深信,洛蕾塔的新书能率领他找到失落古城中的宝藏。 与此同时,艾伦为了证实自己可以成为现实中的豪杰,而不但仅是洛蕾塔虚拟的人物,决议前往救援她。这对极差池付的同伴需要配合尽力,才能在邪恶的森林中保存下来,并在亿万富翁赶到前找到陈腐的宝藏。
  1. ##### MediaInfo ######
  2. General
  3. Unique ID                                : 238209300011405017861803131825824374509 (0xB33571409FFDF1E9BDA0099C63069EED)
  4. Complete name                            : The.Lost.City.2022.2160p.WEB-DL.DDP5.1.Atmos.DV.H.265-CTRLWEB.mkv
  5. Format                                   : Matroska
  6. Format version                           : Version 4
  7. File size                                : 11.7 GiB
  8. Duration                                 : 1 h 51 min
  9. Overall bit rate                         : 14.9 Mb/s
  10. Encoded date                             : UTC 2022-05-10 08:34:28
  11. Writing application                      : mkvmerge v67.0.0 ('Under Stars') 64-bit
  12. Writing library                          : libebml v1.4.2 + libmatroska v1.6.4
  13. Video
  14. ID                                       : 1
  15. Format                                   : HEVC
  16. Format/Info                              : High Efficiency Video Coding
  17. Format profile                           : Main [email protected]@Main
  18. Codec ID                                 : V_MPEGH/ISO/HEVC
  19. Duration                                 : 1 h 51 min
  20. Bit rate                                 : 14.2 Mb/s
  21. Width                                    : 3 840 pixels
  22. Height                                   : 2 160 pixels
  23. Display aspect ratio                     : 16:9
  24. Frame rate mode                          : Constant
  25. Frame rate                               : 23.976 (24000/1001/53875) FPS
  26. Color space                              : YUV
  27. Chroma subsampling                       : 4:2:0 (Type 0)
  28. Bit depth                                : 10 bits
  29. Bits/(Pixel*Frame)                       : 0.071
  30. Stream size                              : 11.1 GiB (95%)
  31. Language                                 : English
  32. Default                                  : Yes
  33. Forced                                   : No
  34. Color range                              : Full
  35. Audio
  36. ID                                       : 2
  37. Format                                   : E-AC-3 JOC
  38. Format/Info                              : Enhanced AC-3 with Joint Object Coding
  39. Commercial name                          : Dolby Digital Plus with Dolby Atmos
  40. Codec ID                                 : A_EAC3
  41. Duration                                 : 1 h 51 min
  42. Bit rate mode                            : Constant
  43. Bit rate                                 : 768 kb/s
  44. Channel(s)                               : 6 channels
  45. Channel layout                           : L R C LFE Ls Rs
  46. Sampling rate                            : 48.0 kHz
  47. Frame rate                               : 31.250 FPS (1536 SPF)
  48. Compression mode                         : Lossy
  49. Stream size                              : 614 MiB (5%)
  50. Language                                 : English
  51. Service kind                             : Complete Main
  52. Default                                  : Yes
  53. Forced                                   : No
  54. Complexity index                         : 16
  55. Number of dynamic objects                : 15
  56. Bed channel count                        : 1 channel
  57. Bed channel configuration                : LFE
  58. Text
  59. ID                                       : 3
  60. Format                                   : UTF-8
  61. Codec ID                                 : S_TEXT/UTF8
  62. Codec ID/Info                            : UTF-8 Plain Text
  63. Duration                                 : 1 h 45 min
  64. Bit rate                                 : 86 b/s
  65. Count of elements                        : 1908
  66. Stream size                              : 66.3 KiB (0%)
  67. Language                                 : English
  68. Default                                  : No
  69. Forced                                   : No
复制代码


丢失之城[杜比视界版本][无字片源].The.Lost.City.2022.2160p.WEB-DL.DDP5.1.Atmos.DV.H.265-CTRLWEB 11.67GB-2.jpeg
丢失之城[杜比视界版本][无字片源].The.Lost.City.2022.2160p.WEB-DL.DDP5.1.Atmos.DV.H.265-CTRLWEB 11.67GB-3.jpeg
丢失之城[杜比视界版本][无字片源].The.Lost.City.2022.2160p.WEB-DL.DDP5.1.Atmos.DV.H.265-CTRLWEB 11.67GB-4.jpeg










回复

使用道具 举报

懒得打字嘛,点击右侧快捷回复 【右侧内容,后台自定义】
您需要登录后才可以回帖 登录 | 立即加入

本版积分规则

Archiver|小黑屋| 蓝光电影网 |网站地图

Copyright © 2021 Comsenz Inc. Powered by 蓝光电影网

蓝光电影网

本站内容由用户自主分享和转载自互联网,转载目的在于传递更多信息,并不代表本网赞同其观点和对其真实性负责。

如有侵权、违反国家法律政策行为,请联系我们,我们会第一时间及时清除和处理!

举报反馈邮箱:[email protected]

快速回复 返回顶部 返回列表