找回密码

蓝光电影网

查看: 123|回复: 5

[2160p-WEB] 捉鬼敢死队2[国英多音轨/中英字幕].Ghostbusters.II.1989.WEB-DL.2160p.x265.10bit.2Audio-MiniHD 16.28GB

[复制链接]
蓝光币
3
发表于 4 天前 | 显示全部楼层 |阅读模式
捉鬼敢死队2[国英多音轨/中英字幕].Ghostbusters.II.1989.WEB-DL.2160p.x265.10bit.2Audio-MiniHD 16.28GB-1.jpeg

◎译  名 捉鬼敢死队2 / 魔鬼克星2(台)
◎片  名 Ghostbusters II
◎年  代 1989
◎产  地 美国
◎类  别 笑剧 / 科幻 / 奇异
◎语  言 英语
◎上映日期 1989-06-19
◎IMDb链接 https://www.imdb.com/title/tt0097428/
◎豆瓣评分 6.6/10 (4261人评价)
◎豆瓣链接 https://movie.douban.com/subject/1297946/
◎片  长 108 分钟
◎导  演 伊万·雷特曼 Ivan Reitman
◎编  剧 丹·艾克罗伊德 Dan Aykroyd
       哈罗德·雷米斯 Harold Ramis
◎演  员 比尔·默瑞 Bill Murray
       丹·艾克罗伊德 Dan Aykroyd
       西格妮·韦弗 Sigourney Weaver
       哈罗德·雷米斯 Harold Ramis
       里克·莫拉尼斯 Rick Moranis
       乔治·P·威尔伯 George P. Wilbur
       佩姬·梁 Page Leong
       贾森·雷特曼 Jason Reitman
       凯文·杜恩 Kevin Dunn
       尤金·列维 Eugene Levy
       彼特·麦尼科 Peter MacNicol
       理查德·弗让吉 Richard Foronjy
       威赫姆·冯·霍姆伯格 Wilhelm von Homburg
       柯特·富勒 Kurt Fuller
       菲利普·贝克·霍尔 Philip Baker Hall
       马克斯·冯·叙多夫 Max von Sydow
       伊万·雷特曼 Ivan Reitman
       布赖恩·道尔 Brian Doyle
       安妮·波茨 Annie Potts
       埃涅·赫德森 Ernie Hudson
       珍妮特·玛戈林 Janet Margolin
       切奇·马林 Cheech Marin
       科洛·韦伯 Chloe Webb
       Robert Alan Beuth Robert Alan Beuth
       鲍比·布朗 Bobby Brown
       Walter Flanagan Walter Flanagan
       哈里斯·于林 Harris Yulin
       玛丽·艾伦·特雷纳 Mary Ellen Trainor
       本·斯坦 Ben Stein
       路易丝·特洛伊 Louise Troy
       Kariim Ratcliff Kariim Ratcliff
       Douglas Seale Douglas Seale
       凯瑟琳·瑞特曼 Catherine Reitman
       克里斯托弗·尼姆 Christopher Neame
       迈克尔·P·莫兰 Michael P. Moran
       大卫·马古利斯 David Margulies
       阿隆·鲁斯汀 Aaron Lustig
       John Hammil John Hammil
       George G. Colucci George G. Colucci
       戴夫·弗洛雷克 Dave Florek
       Michael C. Gross Michael C. Gross
       戈登·A·韦伯 Gordon A. Webb
       谢尔顿·卡恩 Sheldon Kahn
       乔伊·麦迪贾克 Joe Medjuck
       Bernie Brillstein Bernie Brillstein
       伊万·雷特曼 Ivan Reitman
       兰迪·艾德尔曼 Randy Edelman
       迈克尔·查普曼 Michael Chapman
       唐·坎伯恩 Donn Cambern
       谢尔顿·卡恩 Sheldon Kahn
       博·维尔奇 Bo Welch
       谢丽尔·卡拉西克 Cheryl Carasik
       Tom Duffield Tom Duffield
       格洛里亚·格雷斯汉 Gloria Gresham
       Stephen Abrums Stephen Abrums
       Mark Alfrey Mark Alfrey
       迈克尔·R·托马斯 Michael R. Thomas
       Marlene D. Williams Marlene D. Williams
       小约翰·M·艾略特 John M. Elliott Jr.
       迈克尔·D·穆尔 Michael D. Moore
       Sue Fellows Sue Fellows
       Drew Ann Rosenberg Drew Ann Rosenberg
       Annette Sutera Annette Sutera
       Ned Gorman Ned Gorman
       格兰特·麦丘恩 Grant McCune
       George Muhs George Muhs
       Mark S. Miller Mark S. Miller
       Patrick T. Myers Patrick T. Myers
       Benton Jew Benton Jew
       Sam Nicholson Sam Nicholson
       洛尔恩·彼得森 Lorne Peterson
       Martin Rosenberg Martin Rosenberg
       托马斯·罗塞特 Thomas Rosseter
       肯尼斯·史姑娘 Kenneth Smith
       唐·比斯 Don Bies
       戴夫·埃伦 Dave Allen
       彼得·库兰 Peter Kuran
       布拉德·库恩 Brad Kuehn
       布莱恩·格南德 Brian Gernand
       比尔·乔治 Bill George
       托马斯·弗洛茨 Thomas Floutz
       帕米拉·伊斯利 Pamela Easley
       David Drzewiecki David Drzewiecki
       莱斯·伯恩斯汀 Les Bernstien
       戈登·贝克尔 Gordon Baker
       乔恩·亚历山大 Jon Alexander
       爱德华·赫希 Edward Hirsh
       保罗·哈特森 Paul Huston
       哈雷·杰斯普 Harley Jessup
       Carolyn Ensle Rendu Carolyn Ensle Rendu
       皮特·科扎齐克 Pete Kozachik
       迈克·史姑娘森 Mike Smithson
       布鲁斯·沃尔特斯 Bruce Walters
       马克·萨利文 Mark Sullivan
       丹尼斯·穆伦 Dennis Muren
       斯科特·罗斯 Scott Ross
       上杉佑子 Yusei Uesugi
       汤姆·柏提诺 Tom Bertino
       马克·瓦尔戈 Mark Vargo
       Pat Sweeney Pat Sweeney
       Michael Gleason Michael Gleason
       马克·西格尔 Mark Siegel
◎简  介
  捉鬼敢死队员们又一次拿起兵器在曼哈顿与恶魔决战,在纽约城一场小战争后,敢死队发现一个千年恶魔预备重返地球并对曼哈顿不怀美意,而且经过他的王国---曼哈顿艺术博物馆停止破坏行动,现在只要捉鬼敢死队为了拯救纽约城与恶魔决战一场……
  1. ##### MediaInfo ######
  2. General
  3. Unique ID                                : 190299875368257194076670233463785779740 (0x8F2A6C3F24A7CF0BBECBB7640D77F21C)
  4. Complete name                            : Ghostbusters.II.1989.WEB-DL.2160p.x265.10bit.2Audio-MiniHD.mkv
  5. Format                                   : Matroska
  6. Format version                           : Version 4
  7. File size                                : 16.3 GiB
  8. Duration                                 : 1 h 48 min
  9. Overall bit rate                         : 21.5 Mb/s
  10. Encoded date                             : UTC 2016-01-29 10:52:56
  11. Writing application                      : mkvmerge v7.5.0 ('Glass Culture') 64bit built on Jan  4 2015 16:48:44
  12. Writing library                          : libebml v1.3.1 + libmatroska v1.4.2
  13. Video
  14. ID                                       : 1
  15. Format                                   : HEVC
  16. Format/Info                              : High Efficiency Video Coding
  17. Codec ID                                 : V_MPEGH/ISO/HEVC
  18. Duration                                 : 1 h 48 min
  19. Bit rate                                 : 19.5 Mb/s
  20. Width                                    : 3 840 pixels
  21. Height                                   : 1 600 pixels
  22. Display aspect ratio                     : 2.40:1
  23. Frame rate mode                          : Constant
  24. Frame rate                               : 23.976 (24000/1001/53875) FPS
  25. Bits/(Pixel*Frame)                       : 0.132
  26. Stream size                              : 14.8 GiB (91%)
  27. Default                                  : Yes
  28. Forced                                   : No
  29. Audio #1
  30. ID                                       : 2
  31. Format                                   : DTS
  32. Format/Info                              : Digital Theater Systems
  33. Codec ID                                 : A_DTS
  34. Duration                                 : 1 h 48 min
  35. Bit rate mode                            : Constant
  36. Bit rate                                 : 1 509 kb/s
  37. Channel(s)                               : 6 channels
  38. Channel layout                           : C L R Ls Rs LFE
  39. Sampling rate                            : 48.0 kHz
  40. Frame rate                               : 93.750 FPS (512 SPF)
  41. Bit depth                                : 24 bits
  42. Compression mode                         : Lossy
  43. Delay relative to video                  : 3 ms
  44. Stream size                              : 1.14 GiB (7%)
  45. Language                                 : English
  46. Default                                  : Yes
  47. Forced                                   : No
  48. Audio #2
  49. ID                                       : 3
  50. Format                                   : AC-3
  51. Format/Info                              : Audio Coding 3
  52. Commercial name                          : Dolby Digital
  53. Codec ID                                 : A_AC3
  54. Duration                                 : 1 h 47 min
  55. Bit rate mode                            : Constant
  56. Bit rate                                 : 448 kb/s
  57. Channel(s)                               : 6 channels
  58. Channel layout                           : L R C LFE Ls Rs
  59. Sampling rate                            : 48.0 kHz
  60. Frame rate                               : 31.250 FPS (1536 SPF)
  61. Compression mode                         : Lossy
  62. Delay relative to video                  : 24 ms
  63. Stream size                              : 343 MiB (2%)
  64. Language                                 : Chinese
  65. Service kind                             : Complete Main
  66. Default                                  : No
  67. Forced                                   : No
  68. Text #1
  69. ID                                       : 4
  70. Format                                   : PGS
  71. Muxing mode                              : zlib
  72. Codec ID                                 : S_HDMV/PGS
  73. Codec ID/Info                            : Picture based subtitle format used on BDs/HD-DVDs
  74. Duration                                 : 1 h 38 min
  75. Bit rate                                 : 17.6 kb/s
  76. Count of elements                        : 2810
  77. Stream size                              : 12.5 MiB (0%)
  78. Language                                 : English
  79. Default                                  : No
  80. Forced                                   : No
  81. Text #2
  82. ID                                       : 5
  83. Format                                   : PGS
  84. Muxing mode                              : zlib
  85. Codec ID                                 : S_HDMV/PGS
  86. Codec ID/Info                            : Picture based subtitle format used on BDs/HD-DVDs
  87. Duration                                 : 1 h 39 min
  88. Bit rate                                 : 17.5 kb/s
  89. Count of elements                        : 2838
  90. Stream size                              : 12.4 MiB (0%)
  91. Language                                 : Chinese
  92. Default                                  : No
  93. Forced                                   : No
  94. Menu
  95. 00:00:00.000                             : :00:00:00.000
  96. 00:05:00.550                             : :00:05:00.550
  97. 00:11:44.162                             : :00:11:44.162
  98. 00:18:16.012                             : :00:18:16.012
  99. 00:23:36.498                             : :00:23:36.498
  100. 00:32:39.958                             : :00:32:39.958
  101. 00:39:20.817                             : :00:39:20.817
  102. 00:46:15.147                             : :00:46:15.147
  103. 00:52:36.487                             : :00:52:36.487
  104. 00:58:45.981                             : :00:58:45.981
  105. 01:05:34.055                             : :01:05:34.055
  106. 01:14:06.776                             : :01:14:06.776
  107. 01:19:22.216                             : :01:19:22.216
  108. 01:27:22.529                             : :01:27:22.529
  109. 01:33:06.539                             : :01:33:06.539
  110. 01:38:10.635                             : :01:38:10.635
复制代码


捉鬼敢死队2[国英多音轨/中英字幕].Ghostbusters.II.1989.WEB-DL.2160p.x265.10bit.2Audio-MiniHD 16.28GB-2.jpeg
捉鬼敢死队2[国英多音轨/中英字幕].Ghostbusters.II.1989.WEB-DL.2160p.x265.10bit.2Audio-MiniHD 16.28GB-3.jpeg
捉鬼敢死队2[国英多音轨/中英字幕].Ghostbusters.II.1989.WEB-DL.2160p.x265.10bit.2Audio-MiniHD 16.28GB-4.jpeg
捉鬼敢死队2[国英多音轨/中英字幕].Ghostbusters.II.1989.WEB-DL.2160p.x265.10bit.2Audio-MiniHD 16.28GB-5.jpeg










回复

使用道具 举报

蓝光币
22
发表于 4 天前 | 显示全部楼层

楼主太厉害了!楼主,电影应该很好看我觉得蓝光电影网真是个好地方!
回复 支持 反对

使用道具 举报

蓝光币
273
发表于 4 天前 | 显示全部楼层

这个帖子不回对不起自己!我想我是一天也不能离开蓝光电影网。
回复 支持 反对

使用道具 举报

蓝光币
76
发表于 4 天前 | 显示全部楼层

既然你诚信诚意的推荐了,那我就勉为其难的看看吧!蓝光电影网不走平凡路。
回复 支持 反对

使用道具 举报

蓝光币
38
发表于 4 天前 | 显示全部楼层
就喜欢这种高清电影,非常棒!@
回复 支持 反对

使用道具 举报

蓝光币
133
发表于 4 天前 | 显示全部楼层

楼主太厉害了!楼主,电影应该很好看我觉得蓝光电影网真是个好地方!
回复 支持 反对

使用道具 举报

懒得打字嘛,点击右侧快捷回复 【右侧内容,后台自定义】
您需要登录后才可以回帖 登录 | 立即加入

本版积分规则

Archiver|小黑屋| 蓝光电影网 |网站地图

Copyright © 2021 Comsenz Inc. Powered by 蓝光电影网

蓝光电影网

本站内容由用户自主分享和转载自互联网,转载目的在于传递更多信息,并不代表本网赞同其观点和对其真实性负责。

如有侵权、违反国家法律政策行为,请联系我们,我们会第一时间及时清除和处理!

举报反馈邮箱:[email protected]

快速回复 返回顶部 返回列表