找回密码

蓝光电影网

查看: 41|回复: 0

[10bit.HDR] 五路追杀令[简繁英字幕].Smokin.Aces.2007.UHD.BluRay.2160p.DTS-X.MA.7.1.x265.10bit.HDR-ALT 16.19GB

[复制链接]
蓝光币
3
发表于 4 天前 | 显示全部楼层 |阅读模式
五路追杀令[简繁英字幕].Smokin.Aces.2007.UHD.BluRay.2160p.DTS-X.MA.7.1.x265.10bit.HDR-ALT 16.19GB-1.jpeg

◎译  名 五路追杀令 / 皇牌追杀令(港) / 呛烟高手 / 赌国追杀令 / 群雄逐鹿
◎片  名 Smokin' Aces
◎年  代 2006
◎产  地 美国 / 英国 / 法国
◎类  别 剧情 / 行动 / 惊悚 / 犯罪
◎语  言 英语
◎上映日期 2006-12-09(奥斯汀BNAT) / 2007-01-12(英国)
◎IMDb链接 https://www.imdb.com/title/tt0475394/
◎豆瓣评分 6.9/10 (14634人评价)
◎豆瓣链接 https://movie.douban.com/subject/1865012/
◎片  长 109 分钟
◎导  演 乔·卡纳汉 Joe Carnahan
◎编  剧 乔·卡纳汉 Joe Carnahan
◎演  员 瑞安·雷诺兹 Ryan Reynolds
       雷·利奥塔 Ray Liotta
       本·阿弗莱克 Ben Affleck
       彼得·博格 Peter Berg
       安迪·加西亚 Andy Garcia
       塔拉吉·P·汉森 Taraji P. Henson
       克里斯·派恩 Chris Pine
       杰森·贝特曼 Jason Bateman
       马修·福克斯 Matthew Fox
       凯文·杜兰 Kevin Durand
       乔尔·埃哲顿 Joel Edgerton
       艾丽西亚·凯斯 Alicia Keys
       汤米·弗拉纳根 Tommy Flanagan
       布莱恩·布鲁姆 Brian Bloom
       马丁·亨德森 Martin Henderson
       科曼 Common
       阿历克斯·罗克 Alex Rocco
       内斯特·卡博内尔 Nestor Carbonell
       柯蒂斯·阿姆斯壮 Curtis Armstrong
       斯科特·布鲁姆 Scott Bloom
       Jeff Habberstad Jeff Habberstad
       杰里米·皮文 Jeremy Piven
       P. David Miller P. David Miller
       韦恩·牛顿 Wayne Newton
       克拉儿·凯瑞 Clare Carey
       大卫·普罗瓦尔 David Proval
       克里斯托弗·迈克尔·霍利 Christopher Michael Holley
       玛丽安妮·穆勒雷尔 Marianne Muellerleile
       Al Woodley Al Woodley
       达文尼亚·麦克法登 Davenia McFadden
       弗拉基米尔库利奇 Vladimir Kulich
       乔治·费舍尔 George Fisher
       Christopher Murray Christopher Murray
       约瑟夫·拉斯金 Joseph Ruskin
       Zach Cümer Zach Cümer
        Sheryl Chambers
       Mike Falkow Mike Falkow
       James Henderson James Henderson
       Scott Halberstadt Scott Halberstadt
       戴维·戈德史姑娘 David Goldsmith
       莫瑞·史特林 Maury Sterling
       Nick Fenske Nick Fenske
       蒂姆·贝文 Tim Bevan
       Noel Donnellon Noel Donnellon
       罗伯特·格拉夫 Robert Graf
       埃里克·菲尔纳 Eric Fellner
       David Z. Obadiah David Z. Obadiah
       克林特·曼塞尔 Clint Mansell
       摩洛·斐欧拉 Mauro Fiore
       罗伯特·弗雷岑 Robert Frazen
       Amanda Mackey Johnson Amanda Mackey Johnson
       凯茜·桑德里奇 Cathy Sandrich
       马丁·惠斯特 Martin Whist
       Maria L. Baker Maria L. Baker
       玛丽·索弗瑞斯 Mary Zophres
       Anna Fleiner Anna Fleiner
       Cindy J. Williams Cindy J. Williams
       里克·斯特拉顿 Rick Stratton
       Teressa Hill Teressa Hill
       Evelyn Rozenfeld Evelyn Rozenfeld
       托尼·加德纳 Tony Gardner
       格雷格·方克 Greg Funk
       本布雷 Ben Bray
       Justin Muller Justin Muller
       布莱恩·福尔摩斯 Brian Holmes
       丹·考夫曼 Dan Kaufman
       托马斯·J·史姑娘 Thomas J. Smith
       Jim O'Hagan Jim O'Hagan
       罗伯特·明斯克 Robert Minsk
       John Cassella John Cassella
◎简  介
  美国黑手党头子老普莱摩生命弥留,而此时他昔日的手下——把戏师巴迪(Jeremy Piven 饰)正与警方谈判,试图经过做污点证人来减轻自己的抢劫罪行,病床上的普莱摩命令拿到巴迪的心脏,并拜托一位奥秘的瑞典人处置此事。黑手党二号人物敏捷发出了一百万美圆的悬赏,誓要获得巴迪人命。截获此消息的警探理查德(Ryan Reynolds 饰)与唐纳德顿时前往巴迪的地点地——太浩湖。与此同时,高额悬赏吸引了各路杀手,包括疯狂的纳粹三兄弟、辣妹双人组、易容杀手以及擅于刑讯的雇佣兵,三名离职差人亦同时受律师拜托,带回弃保的巴迪。一时候,各路人马前后杀到巴迪潜藏的奢华酒店,将那边酿成了紊乱的疆场……灰尘落定以后,理查德却发现了此案背后的玄机。
  1. ##### MediaInfo ######
  2. General
  3. Unique ID                                : 58596563779040490730929751658892903510 (0x2C1549A58779446EEFEE32C67F0C4456)
  4. Complete name                            : Smokin.Aces.2007.UHD.BluRay.2160p.DTS-X.MA.7.1.x265.10bit.HDR-ALT.mkv
  5. Format                                   : Matroska
  6. Format version                           : Version 4
  7. File size                                : 16.2 GiB
  8. Duration                                 : 1 h 48 min
  9. Overall bit rate mode                    : Variable
  10. Overall bit rate                         : 21.3 Mb/s
  11. Encoded date                             : UTC 2022-05-05 11:40:50
  12. Writing application                      : mkvmerge v49.0.0 ('Sick Of Losing Soulmates') 64-bit
  13. Writing library                          : libebml v1.4.0 + libmatroska v1.6.1
  14. Video
  15. ID                                       : 1
  16. Format                                   : HEVC
  17. Format/Info                              : High Efficiency Video Coding
  18. Format profile                           : Main [email][email protected][/email]@High
  19. HDR format                               : SMPTE ST 2086, HDR10 compatible
  20. Codec ID                                 : V_MPEGH/ISO/HEVC
  21. Duration                                 : 1 h 48 min
  22. Bit rate                                 : 17.1 Mb/s
  23. Width                                    : 3 840 pixels
  24. Height                                   : 1 632 pixels
  25. Display aspect ratio                     : 2.35:1
  26. Frame rate mode                          : Constant
  27. Frame rate                               : 23.976 (24000/1001/53875) FPS
  28. Color space                              : YUV
  29. Chroma subsampling                       : 4:2:0 (Type 2)
  30. Bit depth                                : 10 bits
  31. Bits/(Pixel*Frame)                       : 0.114
  32. Stream size                              : 13.0 GiB (80%)
  33. Title                                    : HEVC, [email][email protected][/email]@High, 24/1.001 fps @ 17091 kbps
  34. Writing library                          : x265 3.5+36-1f2c8da77:[Windows][GCC 11.2.0][64 bit] 10bit
  35. Encoding settings                        : cpuid=538751111039 / frame-threads=4 / numa-pools=20 / wpp / no-pmode / no-pme / no-psnr / no-ssim / log-level=2 / input-csp=1 / input-res=3840x1632 / interlace=0 / total-frames=156469 / level-idc=51 / high-tier=1 / uhd-bd=0 / ref=4 / no-allow-non-conformance / repeat-headers / annexb / no-aud / no-eob / no-eos / hrd / info / hash=0 / no-temporal-layers / no-open-gop / min-keyint=24 / keyint=240 / gop-lookahead=0 / bframes=8 / b-adapt=2 / b-pyramid / bframe-bias=0 / rc-lookahead=25 / lookahead-slices=0 / NTM4NzU=uuDQuD2mJt9fsCf / scenecut=40 / no-hist-scenecut / radl=0 / no-splice / no-intra-refresh / ctu=64 / min-cu-size=8 / no-rect / no-amp / max-tu-size=32 / tu-inter-depth=3 / tu-intra-depth=3 / limit-tu=4 / rdoq-level=2 / dynamic-rd=0.00 / no-ssim-rd / signhide / no-tskip / nr-intra=0 / nr-inter=0 / no-constrained-intra / no-strong-intra-smoothing / max-merge=4 / limit-refs=1 / limit-modes / me=3 / subme=4 / merange=57 / temporal-mvp / no-frame-dup / no-hme / weightp / weightb / no-analyze-src-pics / deblock=-3:-3 / no-sao / no-sao-non-deblock / rd=6 / selective-sao=0 / no-early-skip / rskip / no-fast-intra / no-tskip-fast / no-cu-lossless / b-intra / no-splitrd-skip / rdpenalty=0 / psy-rd=2.00 / psy-rdoq=1.00 / no-rd-refine / no-lossless / cbqpoffs=-2 / crqpoffs=-2 / rc=crf / crf=19.5 / qcomp=0.65 / qpstep=4 / stats-write=0 / stats-read=0 / vbv-maxrate=160000 / vbv-bufsize=160000 / vbv-init=0.9 / min-vbv-fullness=50.0 / max-vbv-fullness=80.0 / crf-max=0.0 / crf-min=0.0 / ipratio=1.30 / pbratio=1.20 / aq-mode=3 / aq-strength=0.85 / cutree / zone-count=0 / no-strict-cbr / qg-size=32 / no-rc-grain / qpmax=69 / qpmin=0 / no-const-vbv / sar=1 / overscan=0 / videoformat=5 / range=0 / colorprim=9 / transfer=16 / colormatrix=9 / chromaloc=1 / chromaloc-top=2 / chromaloc-bottom=2 / display-window=0 / master-display=G(13250,34500)B(7500,3000)R(34000,16000)WP(15635,16450)L(10000000,50) / cll=984,410 / min-luma=0 / max-luma=1023 / log2-max-poc-lsb=8 / vui-timing-info / vui-hrd-info / slices=1 / no-opt-qp-pps / no-opt-ref-list-length-pps / no-multi-pass-opt-rps / scenecut-bias=0.05 / hist-threshold=0.03 / no-opt-cu-delta-qp / no-aq-motion / hdr10 / hdr10-opt / no-dhdr10-opt / no-idr-recovery-sei / analysis-reuse-level=0 / analysis-save-reuse-level=0 / analysis-load-reuse-level=0 / scale-factor=0 / refine-intra=0 / refine-inter=0 / refine-mv=1 / refine-ctu-distortion=0 / no-limit-sao / ctu-info=0 / no-lowpass-dct / refine-analysis-type=0 / copy-pic=1 / max-ausize-factor=1.0 / no-dynamic-refine / no-single-sei / no-hevc-aq / no-svt / no-field / qp-adaptation-range=1.00 / scenecut-aware-qp=0conformance-window-offsets / right=0 / bottom=0 / NTM4NzU= / decoder-max-rate=0 / no-vbv-live-multi-pass
  36. Language                                 : English
  37. Default                                  : Yes
  38. Forced                                   : No
  39. Color range                              : Limited
  40. Color primaries                          : BT.2020
  41. Transfer characteristics                 : PQ
  42. Matrix coefficients                      : BT.2020 non-constant
  43. Mastering display color primaries        : Display P3
  44. Mastering display luminance              : min: 0.0050 cd/m2, max: 1000 cd/m2
  45. Maximum Content Light Level              : 984 cd/m2
  46. Maximum Frame-Average Light Level        : 410 cd/m2
  47. Audio #1
  48. ID                                       : 2
  49. Format                                   : DTS XLL X
  50. Format/Info                              : Digital Theater Systems
  51. Commercial name                          : DTS-HD Master Audio
  52. Codec ID                                 : A_DTS
  53. Duration                                 : 1 h 48 min
  54. Bit rate mode                            : Variable
  55. Bit rate                                 : 3 526 kb/s
  56. Channel(s)                               : 8 channels
  57. Channel(s)_Original                      : Object Based
  58. ChannelLayout_Original                   : Object Based
  59. Sampling rate                            : 48.0 kHz
  60. Frame rate                               : 93.750 FPS (512 SPF)
  61. Bit depth                                : 24 bits
  62. Stream size                              : 2.68 GiB (17%)
  63. Title                                    : English DTS:X Master Audio 7.1 @ 3526 kbps
  64. Language                                 : English
  65. Default                                  : Yes
  66. Forced                                   : No
  67. Audio #2
  68. ID                                       : 3
  69. Format                                   : AC-3
  70. Format/Info                              : Audio Coding 3
  71. Commercial name                          : Dolby Digital
  72. Codec ID                                 : A_AC3
  73. Duration                                 : 1 h 48 min
  74. Bit rate mode                            : Constant
  75. Bit rate                                 : 192 kb/s
  76. Channel(s)                               : 2 channels
  77. Channel layout                           : L R
  78. Sampling rate                            : 48.0 kHz
  79. Frame rate                               : 31.250 FPS (1536 SPF)
  80. Compression mode                         : Lossy
  81. Stream size                              : 149 MiB (1%)
  82. Title                                    : English Dolby Digital Audio 2.0 @ 192 kbps  Commentary 1
  83. Language                                 : English
  84. Service kind                             : Complete Main
  85. Default                                  : No
  86. Forced                                   : No
  87. Audio #3
  88. ID                                       : 4
  89. Format                                   : AC-3
  90. Format/Info                              : Audio Coding 3
  91. Commercial name                          : Dolby Digital
  92. Codec ID                                 : A_AC3
  93. Duration                                 : 1 h 48 min
  94. Bit rate mode                            : Constant
  95. Bit rate                                 : 192 kb/s
  96. Channel(s)                               : 2 channels
  97. Channel layout                           : L R
  98. Sampling rate                            : 48.0 kHz
  99. Frame rate                               : 31.250 FPS (1536 SPF)
  100. Compression mode                         : Lossy
  101. Stream size                              : 149 MiB (1%)
  102. Title                                    : English Dolby Digital Audio 2.0 @ 192 kbps  Commentary 2
  103. Language                                 : English
  104. Service kind                             : Complete Main
  105. Default                                  : No
  106. Forced                                   : No
  107. Text #1
  108. ID                                       : 5
  109. Format                                   : PGS
  110. Codec ID                                 : S_HDMV/PGS
  111. Codec ID/Info                            : Picture based subtitle format used on BDs/HD-DVDs
  112. Duration                                 : 1 h 39 min
  113. Bit rate                                 : 55.9 kb/s
  114. Count of elements                        : 3140
  115. Stream size                              : 39.9 MiB (0%)
  116. Title                                    : Eng/SUP
  117. Language                                 : English
  118. Default                                  : No
  119. Forced                                   : No
  120. Text #2
  121. ID                                       : 6
  122. Format                                   : PGS
  123. Codec ID                                 : S_HDMV/PGS
  124. Codec ID/Info                            : Picture based subtitle format used on BDs/HD-DVDs
  125. Duration                                 : 1 h 48 min
  126. Bit rate                                 : 91.5 kb/s
  127. Count of elements                        : 4519
  128. Stream size                              : 71.0 MiB (0%)
  129. Title                                    : Eng/SUP  Commentary 1
  130. Language                                 : English
  131. Default                                  : No
  132. Forced                                   : No
  133. Text #3
  134. ID                                       : 7
  135. Format                                   : PGS
  136. Codec ID                                 : S_HDMV/PGS
  137. Codec ID/Info                            : Picture based subtitle format used on BDs/HD-DVDs
  138. Duration                                 : 1 h 48 min
  139. Bit rate                                 : 88.4 kb/s
  140. Count of elements                        : 5298
  141. Stream size                              : 68.7 MiB (0%)
  142. Title                                    : Eng/SUP  Commentary 2
  143. Language                                 : English
  144. Default                                  : No
  145. Forced                                   : No
  146. Text #4
  147. ID                                       : 8
  148. Format                                   : PGS
  149. Codec ID                                 : S_HDMV/PGS
  150. Codec ID/Info                            : Picture based subtitle format used on BDs/HD-DVDs
  151. Duration                                 : 1 h 38 min
  152. Bit rate                                 : 38.6 kb/s
  153. Count of elements                        : 2578
  154. Stream size                              : 27.2 MiB (0%)
  155. Title                                    : Chs/SUP  简体
  156. Language                                 : Chinese
  157. Default                                  : Yes
  158. Forced                                   : No
  159. Text #5
  160. ID                                       : 9
  161. Format                                   : PGS
  162. Codec ID                                 : S_HDMV/PGS
  163. Codec ID/Info                            : Picture based subtitle format used on BDs/HD-DVDs
  164. Duration                                 : 1 h 38 min
  165. Bit rate                                 : 40.1 kb/s
  166. Count of elements                        : 2578
  167. Stream size                              : 28.3 MiB (0%)
  168. Title                                    : Cht/SUP  繁体
  169. Language                                 : Chinese
  170. Default                                  : No
  171. Forced                                   : No
  172. Menu
  173. 00:00:00.000                             : en:第 01 章
  174. 00:05:43.969                             : en:第 02 章
  175. 00:11:15.466                             : en:第 03 章
  176. 00:18:20.850                             : en:第 04 章
  177. 00:25:50.215                             : en:第 05 章
  178. 00:30:20.444                             : en:第 06 章
  179. 00:35:39.804                             : en:第 07 章
  180. 00:40:19.917                             : en:第 08 章
  181. 00:48:23.275                             : en:第 09 章
  182. 00:55:46.802                             : en:第 10 章
  183. 00:59:59.513                             : en:第 11 章
  184. 01:04:18.605                             : en:第 12 章
  185. 01:10:16.546                             : en:第 13 章
  186. 01:14:53.030                             : en:第 14 章
  187. 01:22:17.432                             : en:第 15 章
  188. 01:24:54.298                             : en:第 16 章
  189. 01:28:16.291                             : en:第 17 章
  190. 01:31:15.345                             : en:第 18 章
  191. 01:39:26.252                             : en:第 19 章
  192. 01:42:18.674                             : en:第 20 章

复制代码


五路追杀令[简繁英字幕].Smokin.Aces.2007.UHD.BluRay.2160p.DTS-X.MA.7.1.x265.10bit.HDR-ALT 16.19GB-2.jpeg
五路追杀令[简繁英字幕].Smokin.Aces.2007.UHD.BluRay.2160p.DTS-X.MA.7.1.x265.10bit.HDR-ALT 16.19GB-3.jpeg
五路追杀令[简繁英字幕].Smokin.Aces.2007.UHD.BluRay.2160p.DTS-X.MA.7.1.x265.10bit.HDR-ALT 16.19GB-4.jpeg
五路追杀令[简繁英字幕].Smokin.Aces.2007.UHD.BluRay.2160p.DTS-X.MA.7.1.x265.10bit.HDR-ALT 16.19GB-5.jpeg
五路追杀令[简繁英字幕].Smokin.Aces.2007.UHD.BluRay.2160p.DTS-X.MA.7.1.x265.10bit.HDR-ALT 16.19GB-6.jpeg
五路追杀令[简繁英字幕].Smokin.Aces.2007.UHD.BluRay.2160p.DTS-X.MA.7.1.x265.10bit.HDR-ALT 16.19GB-7.jpeg










回复

使用道具 举报

懒得打字嘛,点击右侧快捷回复 【右侧内容,后台自定义】
您需要登录后才可以回帖 登录 | 立即加入

本版积分规则

Archiver|小黑屋| 蓝光电影网 |网站地图

Copyright © 2021 Comsenz Inc. Powered by 蓝光电影网

蓝光电影网

本站内容由用户自主分享和转载自互联网,转载目的在于传递更多信息,并不代表本网赞同其观点和对其真实性负责。

如有侵权、违反国家法律政策行为,请联系我们,我们会第一时间及时清除和处理!

举报反馈邮箱:[email protected]

快速回复 返回顶部 返回列表