找回密码

蓝光电影网

查看: 41|回复: 0

[10bit.HDR] 十二猴子[简繁英字幕].Twelve.Monkeys.1995.UHD.BluRay.2160p.DTS-HD.MA5.1.x265.10bit.HDR-ALT 27.97GB

[复制链接]
蓝光币
3
发表于 4 天前 | 显示全部楼层 |阅读模式
十二山公[简繁英字幕].Twelve.Monkeys.1995.UHD.BluRay.2160p.DTS-HD.MA5.1.x265.10bit.HDR-ALT 27.97GB-1.jpeg

◎译  名 十二山公 / 未来总带动(台) / 12山公 / 十二山公军 / 十二只山公
◎片  名 Twelve Monkeys
◎年  代 1995
◎产  地 美国
◎类  别 科幻 / 悬疑 / 惊悚
◎语  言 英语 / 法语
◎上映日期 1995-12-08(纽约首映) / 1996-01-05(美国)
◎IMDb链接 https://www.imdb.com/title/tt0114746/
◎豆瓣评分 8.2/10 (208700人评价)
◎豆瓣链接 https://movie.douban.com/subject/1298744/
◎片  长 129分钟
◎导  演 特瑞·吉列姆 Terry Gilliam
◎编  剧 克里斯·马克 Chris Marker
       大卫·韦伯·皮普尔斯 David Webb Peoples
       珍妮特·皮普尔斯 Janet Peoples
◎演  员 布鲁斯·威利斯 Bruce Willis
       玛德琳·斯托 Madeleine Stowe
       布拉德·皮特 Brad Pitt
       克里斯托弗·普卢默 Christopher Plummer
       大卫·摩斯 David Morse
       乔恩·塞达 Jon Seda
       迈克尔·禅斯 Michael Chance
       弗农·坎贝尔 Vernon Campbell
       西蒙·琼斯 Simon Jones
       Ernest Abuba Ernest Abuba
       Irma St. Paule Irma St. Paule
       乔伊佩里洛 Joey Perillo
       比尔·雷蒙德 Bill Raymond
       安妮·高登 Annie Golden
       罗杰·普拉特 Roger Pratt
       户田惠子 Keiko Toda
       理查德·斯坦利 Richard Stanley
       克里斯托弗·米洛尼 Christopher Meloni
       Aaron Michael Lacey Aaron Michael Lacey
       马特·罗斯 Matt Ross
       弗兰克·乔辛 Frank Gorshin
       斯蒂芬·布吉格沃特 Stephen Bridgewater
       菲利斯·皮雷 Felix Pire
       Julie Mabry Julie Mabry
       Yuri Korchenko Yuri Korchenko
       Stan Kang Stan Kang
       查克·杰弗里斯 Chuck Jeffreys
       Adam Hatley Adam Hatley
       Lenny Daniels Lenny Daniels
       丽莎盖伊·汉密尔顿 LisaGay Hamilton
       劳埃德·菲利普斯 Lloyd Phillips
       罗伯特·考斯伯格 Robert Kosberg
       加里·莱温索恩 Gary Levinsohn
       Robert Cavallo Robert Cavallo
       查尔斯·罗文 Charles Roven
       保罗·巴克马斯特 Paul Buckmaster
       罗杰·普拉特 Roger Pratt
       米克·奥兹利 Mick Audsley
       玛格莉·辛姆金 Margery Simkin
       杰弗里·比克罗夫特 Jeffrey Beecroft
       克里斯皮安·萨利斯 Crispian Sallis
       William Ladd Skinner William Ladd Skinner
       朱莉·维斯 Julie Weiss
       克丝缇·碧芙丽绮 Christine Beveridge
       Allen Weisinger Allen Weisinger
       肯特·休斯顿 Kent Houston
       Ditch Doy Ditch Doy
       理查德·贝恩 Richard Bain
◎简  介
  公元2035年,人类被12只山公军研制的一种病毒侵袭,大部分人类都在这场病毒灾难中灭亡,只要少数人侥幸逃生,但也只能在阴晦的地下,轻易偷生。                                    
                                科学家们决议派人穿越时光回到1996年清查12只山公军的来历。囚徒詹姆斯·科尔(布鲁斯·威利斯 Bruce Willis 饰)被 挑选为自愿者。鬼使神差,科尔回到了1990年,当他向那时的人们描写未来的那场大灾难时,被看成神经病捉了起来并被医生凯瑟琳·雪莉(玛德琳·斯通 Madeleine Stowe 饰)诊断为精神割裂症。科尔在病友杰弗里·戈因斯帮助下逃走,回到了未来。由于没查清12只山公军的来历,科尔再次被派回了1996年。                                    
                                科尔此次发现了12只山公军的起源地在费城,他找到了医生凯瑟琳,二人一路展开了清查12只山公军的冒险之旅!
◎获奖情况 (共5项)
  第68届奥斯卡金像奖 (1996)
  最好男配角(提名)
   └──布拉德·皮特
  最好打扮设想(提名)
   └──朱莉·维斯
  第46届柏林国际电影节 (1996)
  金熊奖 最好影片(提名)
   └──特瑞·吉列姆
  第53届金球奖 (1996)
  电影类 最好男配角
   └──布拉德·皮特
  第20届日本电影学院奖 (1997)
  最好外语片(提名)
  1. ##### MediaInfo ######
  2. General
  3. Unique ID                                : 93422314995742633224998256144003254665 (0x46487BBF9B2C4B5D0F92223B594A4989)
  4. Complete name                            : Twelve.Monkeys.1995.UHD.BluRay.2160p.DTS-HD.MA5.1.x265.10bit.HDR-ALT.mkv
  5. Format                                   : Matroska
  6. Format version                           : Version 4
  7. File size                                : 28.0 GiB
  8. Duration                                 : 2 h 9 min
  9. Overall bit rate mode                    : Variable
  10. Overall bit rate                         : 30.9 Mb/s
  11. Encoded date                             : UTC 2022-04-27 11:48:55
  12. Writing application                      : mkvmerge v49.0.0 ('Sick Of Losing Soulmates') 64-bit
  13. Writing library                          : libebml v1.4.0 + libmatroska v1.6.1
  14. Video
  15. ID                                       : 1
  16. Format                                   : HEVC
  17. Format/Info                              : High Efficiency Video Coding
  18. Format profile                           : Main [email][email protected][/email]@High
  19. HDR format                               : SMPTE ST 2086, HDR10 compatible
  20. Codec ID                                 : V_MPEGH/ISO/HEVC
  21. Duration                                 : 2 h 9 min
  22. Bit rate                                 : 26.6 Mb/s
  23. Width                                    : 3 840 pixels
  24. Height                                   : 2 076 pixels
  25. Display aspect ratio                     : 1.85:1
  26. Frame rate mode                          : Constant
  27. Frame rate                               : 23.976 (24000/1001/53875) FPS
  28. Color space                              : YUV
  29. Chroma subsampling                       : 4:2:0 (Type 2)
  30. Bit depth                                : 10 bits
  31. Bits/(Pixel*Frame)                       : 0.139
  32. Stream size                              : 24.0 GiB (86%)
  33. Title                                    : HEVC, [email][email protected][/email]@High, 24/1.001 fps @ 26578 kbps
  34. Writing library                          : x265 3.5+36-1f2c8da77:[Windows][GCC 11.2.0][64 bit] 10bit
  35. Encoding settings                        : cpuid=538751111039 / frame-threads=4 / numa-pools=20 / wpp / pmode / pme / no-psnr / no-ssim / log-level=2 / input-csp=1 / input-res=3840x2076 / interlace=0 / total-frames=186216 / level-idc=51 / high-tier=1 / uhd-bd=0 / ref=4 / no-allow-non-conformance / repeat-headers / annexb / no-aud / no-eob / no-eos / hrd / info / hash=0 / no-temporal-layers / no-open-gop / min-keyint=24 / keyint=240 / gop-lookahead=0 / bframes=8 / b-adapt=2 / b-pyramid / bframe-bias=0 / rc-lookahead=25 / lookahead-slices=0 / NTM4NzU=uuDQuD2mJt9fsCf / scenecut=40 / no-hist-scenecut / radl=0 / no-splice / no-intra-refresh / ctu=64 / min-cu-size=8 / no-rect / no-amp / max-tu-size=32 / tu-inter-depth=3 / tu-intra-depth=3 / limit-tu=4 / rdoq-level=2 / dynamic-rd=0.00 / no-ssim-rd / signhide / no-tskip / nr-intra=0 / nr-inter=0 / no-constrained-intra / no-strong-intra-smoothing / max-merge=4 / limit-refs=1 / limit-modes / me=3 / subme=4 / merange=57 / temporal-mvp / no-frame-dup / no-hme / weightp / weightb / no-analyze-src-pics / deblock=-3:-3 / no-sao / no-sao-non-deblock / rd=6 / selective-sao=0 / no-early-skip / rskip / no-fast-intra / no-tskip-fast / no-cu-lossless / b-intra / no-splitrd-skip / rdpenalty=0 / psy-rd=2.00 / psy-rdoq=1.00 / no-rd-refine / no-lossless / cbqpoffs=0 / crqpoffs=0 / rc=crf / crf=21.5 / qcomp=0.65 / qpstep=4 / stats-write=0 / stats-read=0 / vbv-maxrate=160000 / vbv-bufsize=160000 / vbv-init=0.9 / min-vbv-fullness=50.0 / max-vbv-fullness=80.0 / crf-max=0.0 / crf-min=0.0 / ipratio=1.30 / pbratio=1.20 / aq-mode=3 / aq-strength=0.85 / cutree / zone-count=0 / no-strict-cbr / qg-size=32 / no-rc-grain / qpmax=69 / qpmin=0 / no-const-vbv / sar=1 / overscan=0 / videoformat=5 / range=0 / colorprim=9 / transfer=16 / colormatrix=9 / chromaloc=1 / chromaloc-top=2 / chromaloc-bottom=2 / display-window=0 / master-display=G(13250,34500)B(7500,3000)R(34000,16000)WP(15635,16450)L(10000000,1) / cll=0,0 / min-luma=0 / max-luma=1023 / log2-max-poc-lsb=8 / vui-timing-info / vui-hrd-info / slices=1 / no-opt-qp-pps / no-opt-ref-list-length-pps / no-multi-pass-opt-rps / scenecut-bias=0.05 / hist-threshold=0.03 / no-opt-cu-delta-qp / no-aq-motion / hdr10 / hdr10-opt / no-dhdr10-opt / no-idr-recovery-sei / analysis-reuse-level=0 / analysis-save-reuse-level=0 / analysis-load-reuse-level=0 / scale-factor=0 / refine-intra=0 / refine-inter=0 / refine-mv=1 / refine-ctu-distortion=0 / no-limit-sao / ctu-info=0 / no-lowpass-dct / refine-analysis-type=0 / copy-pic=1 / max-ausize-factor=1.0 / no-dynamic-refine / no-single-sei / no-hevc-aq / no-svt / no-field / qp-adaptation-range=1.00 / scenecut-aware-qp=0conformance-window-offsets / right=0 / bottom=0 / NTM4NzU= / decoder-max-rate=0 / no-vbv-live-multi-pass
  36. Language                                 : English
  37. Default                                  : Yes
  38. Forced                                   : No
  39. Color range                              : Limited
  40. Color primaries                          : BT.2020
  41. Transfer characteristics                 : PQ
  42. Matrix coefficients                      : BT.2020 non-constant
  43. Mastering display color primaries        : Display P3
  44. Mastering display luminance              : min: 0.0001 cd/m2, max: 1000 cd/m2
  45. Audio #1
  46. ID                                       : 2
  47. Format                                   : DTS XLL
  48. Format/Info                              : Digital Theater Systems
  49. Commercial name                          : DTS-HD Master Audio
  50. Codec ID                                 : A_DTS
  51. Duration                                 : 2 h 9 min
  52. Bit rate mode                            : Variable
  53. Bit rate                                 : 3 901 kb/s
  54. Channel(s)                               : 6 channels
  55. Channel layout                           : C L R Ls Rs LFE
  56. Sampling rate                            : 48.0 kHz
  57. Frame rate                               : 93.750 FPS (512 SPF)
  58. Bit depth                                : 24 bits
  59. Compression mode                         : Lossless
  60. Stream size                              : 3.53 GiB (13%)
  61. Title                                    : English DTS-HD Master Audio 5.1 @ 3901 kbps
  62. Language                                 : English
  63. Default                                  : Yes
  64. Forced                                   : No
  65. Audio #2
  66. ID                                       : 3
  67. Format                                   : AC-3
  68. Format/Info                              : Audio Coding 3
  69. Commercial name                          : Dolby Digital
  70. Codec ID                                 : A_AC3
  71. Duration                                 : 2 h 9 min
  72. Bit rate mode                            : Constant
  73. Bit rate                                 : 192 kb/s
  74. Channel(s)                               : 2 channels
  75. Channel layout                           : L R
  76. Sampling rate                            : 48.0 kHz
  77. Frame rate                               : 31.250 FPS (1536 SPF)
  78. Compression mode                         : Lossy
  79. Stream size                              : 178 MiB (1%)
  80. Title                                    : English Dolby Digital Audio 2.0 @ 192 kbps  Commentary
  81. Language                                 : English
  82. Service kind                             : Complete Main
  83. Default                                  : No
  84. Forced                                   : No
  85. Text #1
  86. ID                                       : 4
  87. Format                                   : PGS
  88. Codec ID                                 : S_HDMV/PGS
  89. Codec ID/Info                            : Picture based subtitle format used on BDs/HD-DVDs
  90. Duration                                 : 2 h 5 min
  91. Bit rate                                 : 47.0 kb/s
  92. Count of elements                        : 3532
  93. Stream size                              : 42.4 MiB (0%)
  94. Title                                    : Eng/SUP
  95. Language                                 : English
  96. Default                                  : No
  97. Forced                                   : No
  98. Text #2
  99. ID                                       : 5
  100. Format                                   : PGS
  101. Codec ID                                 : S_HDMV/PGS
  102. Codec ID/Info                            : Picture based subtitle format used on BDs/HD-DVDs
  103. Duration                                 : 2 h 7 min
  104. Bit rate                                 : 44.3 kb/s
  105. Count of elements                        : 3599
  106. Stream size                              : 40.4 MiB (0%)
  107. Title                                    : Chs/SUP  简体
  108. Language                                 : Chinese
  109. Default                                  : Yes
  110. Forced                                   : No
  111. Text #3
  112. ID                                       : 6
  113. Format                                   : PGS
  114. Codec ID                                 : S_HDMV/PGS
  115. Codec ID/Info                            : Picture based subtitle format used on BDs/HD-DVDs
  116. Duration                                 : 2 h 7 min
  117. Bit rate                                 : 45.9 kb/s
  118. Count of elements                        : 3599
  119. Stream size                              : 41.8 MiB (0%)
  120. Title                                    : Cht/SUP  繁体
  121. Language                                 : Chinese
  122. Default                                  : No
  123. Forced                                   : No
  124. Text #4
  125. ID                                       : 7
  126. Format                                   : PGS
  127. Codec ID                                 : S_HDMV/PGS
  128. Codec ID/Info                            : Picture based subtitle format used on BDs/HD-DVDs
  129. Duration                                 : 2 h 4 min
  130. Bit rate                                 : 64.6 kb/s
  131. Count of elements                        : 2144
  132. Stream size                              : 57.5 MiB (0%)
  133. Title                                    : Chs/SUP  简英双语
  134. Language                                 : Chinese
  135. Default                                  : No
  136. Forced                                   : No
  137. Text #5
  138. ID                                       : 8
  139. Format                                   : PGS
  140. Codec ID                                 : S_HDMV/PGS
  141. Codec ID/Info                            : Picture based subtitle format used on BDs/HD-DVDs
  142. Duration                                 : 2 h 4 min
  143. Bit rate                                 : 65.3 kb/s
  144. Count of elements                        : 2144
  145. Stream size                              : 58.1 MiB (0%)
  146. Title                                    : Cht/SUP  繁英双语
  147. Language                                 : Chinese
  148. Default                                  : No
  149. Forced                                   : No
  150. Menu
  151. 00:00:00.000                             : en:第 01 章
  152. 00:10:57.365                             : en:第 02 章
  153. 00:21:28.869                             : en:第 03 章
  154. 00:29:26.263                             : en:第 04 章
  155. 00:42:05.231                             : en:第 05 章
  156. 00:53:14.065                             : en:第 06 章
  157. 01:06:32.195                             : en:第 07 章
  158. 01:15:49.836                             : en:第 08 章
  159. 01:26:03.992                             : en:第 09 章
  160. 01:36:26.779                             : en:第 10 章
  161. 01:46:32.676                             : en:第 11 章
  162. 01:57:33.296                             : en:第 12 章

复制代码


十二山公[简繁英字幕].Twelve.Monkeys.1995.UHD.BluRay.2160p.DTS-HD.MA5.1.x265.10bit.HDR-ALT 27.97GB-2.jpeg
十二山公[简繁英字幕].Twelve.Monkeys.1995.UHD.BluRay.2160p.DTS-HD.MA5.1.x265.10bit.HDR-ALT 27.97GB-3.jpeg
十二山公[简繁英字幕].Twelve.Monkeys.1995.UHD.BluRay.2160p.DTS-HD.MA5.1.x265.10bit.HDR-ALT 27.97GB-4.jpeg
十二山公[简繁英字幕].Twelve.Monkeys.1995.UHD.BluRay.2160p.DTS-HD.MA5.1.x265.10bit.HDR-ALT 27.97GB-5.jpeg
十二山公[简繁英字幕].Twelve.Monkeys.1995.UHD.BluRay.2160p.DTS-HD.MA5.1.x265.10bit.HDR-ALT 27.97GB-6.jpeg
十二山公[简繁英字幕].Twelve.Monkeys.1995.UHD.BluRay.2160p.DTS-HD.MA5.1.x265.10bit.HDR-ALT 27.97GB-7.jpeg










回复

使用道具 举报

懒得打字嘛,点击右侧快捷回复 【右侧内容,后台自定义】
您需要登录后才可以回帖 登录 | 立即加入

本版积分规则

Archiver|小黑屋| 蓝光电影网 |网站地图

Copyright © 2021 Comsenz Inc. Powered by 蓝光电影网

蓝光电影网

本站内容由用户自主分享和转载自互联网,转载目的在于传递更多信息,并不代表本网赞同其观点和对其真实性负责。

如有侵权、违反国家法律政策行为,请联系我们,我们会第一时间及时清除和处理!

举报反馈邮箱:[email protected]

快速回复 返回顶部 返回列表