找回密码

蓝光电影网

查看: 47|回复: 0

[10bit.HDR] 刺杀小说家[杜比视界版本][国语音轨/中英字幕].A.Writer's.Odyssey.2021.CHN.UHD.2160p.x265.10bit.DoVi-MiniHD 19.06GB

[复制链接]
蓝光币
4
发表于 4 天前 | 显示全部楼层 |阅读模式
刺杀小说家[杜比视界版本][国语音轨/中英字幕].A.Writer's.Odyssey.2021.CHN.UHD.2160p.x265.10bit.DoVi-MiniHD 19.06GB-1.jpeg

◎译  名 刺杀小说家 / A Writer's Odyssey / Assassin in Red
◎年  代 2021
◎产  地 中国大陆
◎类  别 行动 / 奇异 / 冒险
◎语  言 汉语普通话
◎上映日期 2021-02-12(中国大陆)
◎IMDb链接 https://www.imdb.com/title/tt9685342/
◎豆瓣评分 6.5/10 (606197人评价)
◎豆瓣链接 https://movie.douban.com/subject/26826330/
◎片  长 130分钟
◎导  演 路阳 Yang Lu
◎编  剧 陈舒 Shu Chen
       禹扬 Yang Yu
       秦海燕 Haiyan Qin
       路阳 Yang Lu
       双雪涛 Xuetao Shuang
◎演  员 雷佳音 Jiayin Lei
       杨幂 Mi Yang
       董子健 Zijian Dong
       于和伟 Hewei Yu
       郭京飞 Jingfei Guo
       佟丽娅 Liya Tong
       董洁 Jie Dong
       王圣迪 Shengdi Wang
       杨轶 Yi Yang
       刘天佐 Tianzuo Liu
       李柄辉 Binghui Li
       萧子墨 Eric Hsiao
       双雪涛 Xuetao Shuang
       徐建 Eric Xu
       刘迅 Xun Liu
       任杰 Jie Ren
       陈铁军 Tiejun Chen
       李泰延 Taiyan Li
       张优 You Zhang
       张戈 Ge Zhang
       谭天宇 Tianyu Tan
       虞书欣 Shuxin Yu
       高睿菲儿 Ruifeier Gao
       吴振熙 Zhenxi Wu
       黄皓达 Haoda Huang
       韩陌 Mo Han
       康嘉泽 Jiaze Kang
       马一萍 Yiping Ma
       杨婉婷 Wanting Yang
       宁浩 Hao Ning
       张宁 Ning Zhang
       万娟 Juan Wan
       郭帆 Frant Gwo
       饶晓志 Xiaozhi Rao
       王红卫 Hongwei Wang
       郑志昊 Zhihao Zheng
       李捷 Jie Li
       王建军 Jianjun Wang
       讲武生 Wusheng Jiang
       张灼 Zhuo Zhang
       孙来贵 Laigui Sun
       鱼洁 Jie Yu
       顾思斌 Sibin Gu
       孙喆一 Zheyi Sun
       傅斌星 Binxing Fu
       夏熹 Xi Xia
       陈岩 Yan Chen
       罗伯特·埃姆斯 Robert Ames
       皮特·科宾 Peter Cobbin
       本·柯里根 Ben Corrigan
       本·皮尔森 Ben Pearson
       基尔斯蒂·瓦利 Kirsty Whalley
       周延 GAI
       萨吉 Sagel
       于飞 Fei Yu
       杰德·库泽尔 Jed Kurzel
       韩淇名 Qiming Han
       曹勇 Yong Cao
       杨宇辉 Yuhui Yang
       张亘 Gen Zhang
       朱琳 Lin Zhu
       朱利赟 Li Yun Zhu
       赵一龙 Yilong Zhao
       李淼 Miao Li
       李同 Tong Li
       常鹭 Lu Chang
       陶林 Lin Tao
       梁婷婷 Tingting Liang
       杨晓海 Xiaohai Yang
       肖进 Jin Xiao
       王钢 Gang Wang
       刘晓莎 Xiaosha Liu
       程寅 Yin Cheng
       熊艺 Yi Xiong
       徐建 Eric Xu
       蔡猛 Meng Cai
       魏明 Allen Wei
       张涛 Tao Zhang
       曹华 Hua Cao
       王程 Cheng Wang
       程传勇 Chuanyong Cheng
◎简  介
  异天下皇都,天神赤发鬼残暴统治,草菅人命。少年空文因被赤发鬼追杀,决议奋起还击。在黑甲(郭京飞 饰)的指引下,踏上了凡人弑神之路。这是小说家路空文(董子健 饰)笔下的奇异天下。没想到小说的进程,居然影响着现实天下。这时一位男人(雷佳音 饰)接下了刺杀他的使命……
◎获奖情况 (共9项)
  第34届中国电影金鸡奖 (2021)
  最好导演(提名)
   └──路阳
  最好摄影(提名)
   └──韩淇名
  最好美术(提名)
  最好剪辑(提名)
  最好音乐(提名)
  最好录音(提名)
  第15届亚洲电影大奖 (2021)
  最好美术指导(提名)
   └──李淼
  最好视觉结果(提名)
  第7届豆瓣电影年度榜单 (2020)
  最值得期待的华语电影(提名)
  1. General
  2. Unique ID                                : 102507636009014693824341267753305809654 (0x4D1E40A88BD39251502F5E651016A2F6)
  3. Complete name                            : A.Writer's.Odyssey.2021.CHN.UHD.2160p.x265.10bit.DoVi-MiniHD.mkv
  4. Format                                   : Matroska
  5. Format version                           : Version 4
  6. File size                                : 19.1 GiB
  7. Duration                                 : 2 h 9 min
  8. Overall bit rate mode                    : Variable
  9. Overall bit rate                         : 21.0 Mb/s
  10. Encoded date                             : UTC 2021-11-27 13:09:41
  11. Writing application                      : mkvmerge v62.0.0 ('Apollo') 64-bit
  12. Writing library                          : libebml v1.4.2 + libmatroska v1.6.4
  13. Video
  14. ID                                       : 1
  15. Format                                   : HEVC
  16. Format/Info                              : High Efficiency Video Coding
  17. Format profile                           : Main [email][email protected][/email]@High
  18. HDR format                               : SMPTE ST 2086, HDR10 compatible
  19. Codec ID                                 : V_MPEGH/ISO/HEVC
  20. Duration                                 : 2 h 9 min
  21. Bit rate                                 : 17.1 Mb/s
  22. Width                                    : 3 840 pixels
  23. Height                                   : 2 160 pixels
  24. Display aspect ratio                     : 16:9
  25. Frame rate mode                          : Constant
  26. Frame rate                               : 24.000 FPS
  27. Color space                              : YUV
  28. Chroma subsampling                       : 4:2:0
  29. Bit depth                                : 10 bits
  30. Bits/(Pixel*Frame)                       : 0.086
  31. Stream size                              : 15.5 GiB (81%)
  32. Writing library                          : x265 3.3+3-g8f8e332f1+29:[Windows][#Erg`Djh#][@Yuuki] made by @Dongfangbubai
  33. Encoding settings                        : rc=crf / crf=20.0000 / qcomp=0.70 / qpstep=4 / stats-write=0 / stats-read=0 / vbv-maxrate=160000 / vbv-bufsize=160000 / vbv-init=0.9 / crf-max=0.0 / crf-min=0.0 / no-lossless / no-cu-lossless / aq-mode=3 / aq-strength=0.80 / cbqpoffs=-3 / crqpoffs=-3 / ipratio=1.40 / pbratio=1.30 / psy-rd=2.00 / psy-rdoq=3.00 / deblock=-1:-1 / ref=5 / limit-refs=0 / no-limit-modes / bframes=8 / b-adapt=2 / bframe-bias=0 / b-pyramid / b-intra / weightp / weightb / min-keyint=24 / max-keyint=240 / rc-lookahead=60 / gop-lookahead=0 / NTM4NzU=uuDQuD2mJt9fsCf / scenecut=40 / hist-scenecut=0 / radl=0 / max-cu-size=32 / min-cu-size=8 / me=3 / subme=4 / merange=25 / rdoq-level=2 / rd=4 / rdpenalty=1 / dynamic-rd=0.00 / no-rd-refine / ----- / no-cutree / no-sao / no-rect / no-amp / no-open-gop / wpp / pmode / pme / no-psnr / no-ssim / nr-intra=0 / nr-inter=0 / no-constrained-intra / no-strong-intra-smoothing / max-tu-size=32 / tu-inter-depth=2 / tu-intra-depth=2 / limit-tu=0 / qg-size=32 / qpmax=69 / qpmin=0 / ----- / cpuid=538751176575 / frame-threads=6 / numa-pools=54,- / log-level=2 / input-csp=1 / input-res=3840x2160 / interlace=0 / level-idc=0 / high-tier=1 / uhd-bd=0 / no-allow-non-conformance / repeat-headers / aud / hrd / info / hash=0 / no-temporal-layers / lookahead-slices=0 / no-splice / no-intra-refresh / no-ssim-rd / signhide / no-tskip / max-merge=3 / temporal-mvp / no-frame-dup / no-hme / no-analyze-src-pics / no-sao-non-deblock / selective-sao=0 / no-early-skip / no-rskip / no-fast-intra / no-tskip-fast / no-splitrd-skip / zone-count=0 / no-strict-cbr / no-rc-grain / no-const-vbv / sar=0 / overscan=0 / videoformat=5 / range=0 / colorprim=9 / transfer=16 / colormatrix=9 / chromaloc=0 / display-window=0 / master-display=G(13250,34500)B(7500,3000)R(34000,16000)WP(15635,16450)L(10000000,50) / cll=0,0 / min-luma=0 / max-luma=1023 / log2-max-poc-lsb=8 / vui-timing-info / vui-hrd-info / slices=1 / no-opt-qp-pps / no-opt-ref-list-length-pps / no-multi-pass-opt-rps / scenecut-bias=0.05 / hist-threshold=0.01 / no-opt-cu-delta-qp / no-aq-motion / hdr10 / hdr10-opt / no-dhdr10-opt / no-idr-recovery-sei / analysis-reuse-level=0 / analysis-save-reuse-level=0 / analysis-load-reuse-level=0 / scale-factor=0 / refine-intra=0 / refine-inter=0 / refine-mv=1 / refine-ctu-distortion=0 / no-limit-sao / ctu-info=0 / no-lowpass-dct / refine-analysis-type=0 / copy-pic=1 / max-ausize-factor=1.0 / no-dynamic-refine / no-single-sei / no-hevc-aq / no-svt / no-field / qp-adaptation-range=1.00 / no-scenecut-aware-qpconformance-window-offsets / right=0 / bottom=0 / NTM4NzU=
  34. Default                                  : Yes
  35. Forced                                   : No
  36. Color range                              : Limited
  37. Color primaries                          : BT.2020
  38. Transfer characteristics                 : PQ
  39. Matrix coefficients                      : BT.2020 non-constant
  40. Mastering display color primaries        : Display P3
  41. Mastering display luminance              : min: 0.0050 cd/m2, max: 1000 cd/m2
  42. Audio
  43. ID                                       : 2
  44. Format                                   : MLP FBA 16-ch
  45. Format/Info                              : Meridian Lossless Packing FBA with 16-channel presentation
  46. Commercial name                          : Dolby TrueHD with Dolby Atmos
  47. Codec ID                                 : A_TRUEHD
  48. Duration                                 : 2 h 9 min
  49. Bit rate mode                            : Variable
  50. Bit rate                                 : 3 802 kb/s
  51. Maximum bit rate                         : 5 742 kb/s
  52. Channel(s)                               : 8 channels
  53. Channel layout                           : L R C LFE Ls Rs Lb Rb
  54. Sampling rate                            : 48.0 kHz
  55. Frame rate                               : 1 200.000 FPS (40 SPF)
  56. Compression mode                         : Lossless
  57. Stream size                              : 3.45 GiB (18%)
  58. Language                                 : Chinese
  59. Default                                  : Yes
  60. Forced                                   : No
  61. Number of dynamic objects                : 11
  62. Bed channel count                        : 1 channel
  63. Bed channel configuration                : LFE
  64. Text #1
  65. ID                                       : 3
  66. Format                                   : PGS
  67. Muxing mode                              : zlib
  68. Codec ID                                 : S_HDMV/PGS
  69. Codec ID/Info                            : Picture based subtitle format used on BDs/HD-DVDs
  70. Duration                                 : 2 h 7 min
  71. Bit rate                                 : 18.8 kb/s
  72. Count of elements                        : 2679
  73. Stream size                              : 17.1 MiB (0%)
  74. Title                                    : 原盘简中
  75. Language                                 : Chinese
  76. Default                                  : Yes
  77. Forced                                   : No
  78. Text #2
  79. ID                                       : 4
  80. Format                                   : PGS
  81. Muxing mode                              : zlib
  82. Codec ID                                 : S_HDMV/PGS
  83. Codec ID/Info                            : Picture based subtitle format used on BDs/HD-DVDs
  84. Duration                                 : 2 h 7 min
  85. Bit rate                                 : 15.9 kb/s
  86. Count of elements                        : 2864
  87. Stream size                              : 14.4 MiB (0%)
  88. Title                                    : 简中
  89. Language                                 : Chinese
  90. Default                                  : No
  91. Forced                                   : No
  92. Menu
  93. 00:00:00.000                             : en:第 01 章
  94. 00:09:03.167                             : en:第 02 章
  95. 00:20:43.542                             : en:第 03 章
  96. 00:35:00.542                             : en:第 04 章
  97. 00:42:59.375                             : en:第 05 章
  98. 00:56:35.208                             : en:第 06 章
  99. 01:07:33.375                             : en:第 07 章
  100. 01:14:54.292                             : en:第 08 章
  101. 01:30:18.542                             : en:第 09 章
  102. 01:41:44.292                             : en:第 10 章
  103. 01:56:45.000                             : en:第 11 章
  104. 02:06:40.167                             : en:第 12 章

复制代码


刺杀小说家[杜比视界版本][国语音轨/中英字幕].A.Writer's.Odyssey.2021.CHN.UHD.2160p.x265.10bit.DoVi-MiniHD 19.06GB-2.jpeg
刺杀小说家[杜比视界版本][国语音轨/中英字幕].A.Writer's.Odyssey.2021.CHN.UHD.2160p.x265.10bit.DoVi-MiniHD 19.06GB-3.jpeg
刺杀小说家[杜比视界版本][国语音轨/中英字幕].A.Writer's.Odyssey.2021.CHN.UHD.2160p.x265.10bit.DoVi-MiniHD 19.06GB-4.jpeg
刺杀小说家[杜比视界版本][国语音轨/中英字幕].A.Writer's.Odyssey.2021.CHN.UHD.2160p.x265.10bit.DoVi-MiniHD 19.06GB-5.jpeg
刺杀小说家[杜比视界版本][国语音轨/中英字幕].A.Writer's.Odyssey.2021.CHN.UHD.2160p.x265.10bit.DoVi-MiniHD 19.06GB-6.jpeg
刺杀小说家[杜比视界版本][国语音轨/中英字幕].A.Writer's.Odyssey.2021.CHN.UHD.2160p.x265.10bit.DoVi-MiniHD 19.06GB-7.jpeg










回复

使用道具 举报

懒得打字嘛,点击右侧快捷回复 【右侧内容,后台自定义】
您需要登录后才可以回帖 登录 | 立即加入

本版积分规则

Archiver|小黑屋| 蓝光电影网 |网站地图

Copyright © 2021 Comsenz Inc. Powered by 蓝光电影网

蓝光电影网

本站内容由用户自主分享和转载自互联网,转载目的在于传递更多信息,并不代表本网赞同其观点和对其真实性负责。

如有侵权、违反国家法律政策行为,请联系我们,我们会第一时间及时清除和处理!

举报反馈邮箱:[email protected]

快速回复 返回顶部 返回列表