找回密码

蓝光电影网

查看: 100|回复: 3

[10bit.HDR] 旺角卡门[国语音轨/简体字幕].Wong.Gok.ka.moon.1988.2160p.UHD.Bluray.LPCM.2.0-PAGE 19.95GB

[复制链接]
蓝光币
3
发表于 4 天前 | 显示全部楼层 |阅读模式
旺角卡门[国语音轨/简体字幕].Wong.Gok.ka.moon.1988.2160p.UHD.Bluray.LPCM.2.0-PAGE 19.95GB-1.jpeg

◎译  名 旺角卡门 / 热血男儿(台) / As Tears Go By
◎片  名 旺角卡門
◎年  代 1988
◎产  地 中国香港
◎类  别 剧情 / 恋爱 / 犯罪
◎语  言 粤语
◎上映日期 1988-06-09(中国香港)
◎IMDb链接 https://www.imdb.com/title/tt0096461/
◎豆瓣评分 7.8/10 (189164人评价)
◎豆瓣链接 https://movie.douban.com/subject/1304624/
◎片  长 102 分钟
◎导  演 王家卫 Kar Wai Wong
◎编  剧 王家卫 Kar Wai Wong
◎演  员 刘德华 Andy Lau
       张学友 Jacky Cheung
       张曼玉 Maggie Cheung
       万梓良 Alex Man
       林蛟 Kau Lam
       黄斌 Ronald Wong
       陈志辉 Chi Fai Chan
       江道海 To-hoi Kong
       张叔平 William Chang
       黄拔景 Huang Pa-Ching
       邓泰和 Tai Wo Tang
       陈文妤 Man-Hiu Chan
       张荣祥 Cheung Wing-Cheung
       秦贵宝 Kwai Po Chun
       刘伟强 Andrew Lau
       简达华 Tat-Wah Gan
       许芬 Fan Hui
       江浪 Kong Long
       黄莺 Canary Wong
       马玉成 Yuk-Sing Ma
       白茵 Yan Pak
       甘山 San Gam  (id:1316752)
       钟定一 Danny Chung
       缪健辉 Tony Miu
       刘伟强 Andrew Lau
       敖志君 Peter Ngor
       曹惠琪 Hui-Chi Tsao
       蒋彼得 Pi Tak Cheong
       张叔平 William Chang
       卢瑞莲 Sui Lin Lo
       江约诚 Johnnie Kong Yeuk-Sing
       江道海 To-hoi Kong
       董玮 Wai Tung
       黄志明 Wong Chi-Ming
       邓名誉 Alan Tang
◎简  介
  香港九龙区旺角混混阿杰(刘德华)干事爽利重情谊,很有老迈风采,为了照顾干事感动又好体面的小弟乌蝇(张学友),他不停地在各类巨细麻烦中周旋,甚至不惜为乌蝇与黑道狠脚色(万梓良)结仇。                                    
                                阿杰表妹阿娥(张曼玉)前来旺角看病暂住他家,两人渐渐互生情愫,但由于担忧自己的身份终极会给阿娥带来危险,阿杰挑选了将苦衷埋藏。待阿杰大白真情抑压不住想对命运做番抵抗时,乌蝇却再次因好体面面临生命危险,因而一道友谊与恋爱必选其一的困难重又摆在阿杰眼前。
◎获奖情况 (共12项)
  第25届台北金马影展 (1988)
  金马奖 最好导演(提名)
   └──王家卫
  金马奖 最好美术设想(提名)
   └──张叔平
  第8届香港电影金像奖 (1989)
  最好电影(提名)
  最好导演(提名)
   └──王家卫
  最好男配角(提名)
   └──刘德华
  最好女配角(提名)
   └──张曼玉
  最好男配角
   └──张学友
  最好男配角(提名)
   └──万梓良
  最好摄影(提名)
   └──刘伟强
  最好剪接(提名)
   └──蒋彼得
  最好美术指导
   └──张叔平
  最好原创电影音乐(提名)
   └──钟定一
  1. ##### MediaInfo ######
  2. General
  3. Unique ID                                : 37446202764235222943111461960972031019 (0x1C2BE0568E10F849A154D6E670D0D42B)
  4. Complete name                            : Wong.Gok.ka.moon.1988.2160p.UHD.Bluray.LPCM.2.0-PAGE.mkv
  5. Format                                   : Matroska
  6. Format version                           : Version 4
  7. File size                                : 20.0 GiB
  8. Duration                                 : 1 h 39 min
  9. Overall bit rate                         : 28.8 Mb/s
  10. Encoded date                             : UTC 2022-05-01 04:40:07
  11. Writing application                      : mkvmerge v67.0.0 ('Under Stars') 64-bit
  12. Writing library                          : libebml v1.4.2 + libmatroska v1.6.4
  13. Cover                                    : Yes
  14. Attachments                              : cover.jpg
  15. Video
  16. ID                                       : 1
  17. Format                                   : HEVC
  18. Format/Info                              : High Efficiency Video Coding
  19. Format profile                           : Main [email][email protected][/email]@High
  20. HDR format                               : SMPTE ST 2086, HDR10 compatible
  21. Codec ID                                 : V_MPEGH/ISO/HEVC
  22. Duration                                 : 1 h 39 min
  23. Bit rate                                 : 27.3 Mb/s
  24. Width                                    : 3 840 pixels
  25. Height                                   : 2 160 pixels
  26. Display aspect ratio                     : 16:9
  27. Frame rate mode                          : Constant
  28. Frame rate                               : 23.976 (24000/1001/53875) FPS
  29. Color space                              : YUV
  30. Chroma subsampling                       : 4:2:0
  31. Bit depth                                : 10 bits
  32. Bits/(Pixel*Frame)                       : 0.137
  33. Stream size                              : 18.9 GiB (95%)
  34. Writing library                          : x265 3.3+3-g8f8e332f1+29:[Windows][#Erg`Djh#][@Yuuki] made by @Dongfangbubai
  35. Encoding settings                        : rc=crf / crf=18.0000 / qcomp=0.70 / qpstep=4 / stats-write=0 / stats-read=0 / vbv-maxrate=160000 / vbv-bufsize=160000 / vbv-init=0.9 / crf-max=0.0 / crf-min=0.0 / no-lossless / no-cu-lossless / aq-mode=3 / aq-strength=0.80 / cbqpoffs=-3 / crqpoffs=-3 / ipratio=1.40 / pbratio=1.30 / psy-rd=2.00 / psy-rdoq=3.00 / deblock=-1:-1 / ref=5 / limit-refs=0 / no-limit-modes / bframes=8 / b-adapt=2 / bframe-bias=0 / b-pyramid / b-intra / weightp / weightb / min-keyint=23 / max-keyint=240 / rc-lookahead=60 / gop-lookahead=0 / NTM4NzU=uuDQuD2mJt9fsCf / scenecut=40 / hist-scenecut=0 / radl=0 / max-cu-size=32 / min-cu-size=8 / me=3 / subme=4 / merange=25 / rdoq-level=2 / rd=4 / rdpenalty=1 / dynamic-rd=0.00 / no-rd-refine / ----- / no-cutree / no-sao / no-rect / no-amp / no-open-gop / wpp / pmode / pme / no-psnr / no-ssim / nr-intra=0 / nr-inter=0 / no-constrained-intra / no-strong-intra-smoothing / max-tu-size=32 / tu-inter-depth=2 / tu-intra-depth=2 / limit-tu=0 / qg-size=32 / qpmax=69 / qpmin=0 / ----- / cpuid=538751176575 / frame-threads=6 / numa-pools=54,- / log-level=2 / input-csp=1 / input-res=3840x2160 / interlace=0 / level-idc=0 / high-tier=1 / uhd-bd=0 / no-allow-non-conformance / repeat-headers / no-aud / hrd / info / hash=0 / no-temporal-layers / lookahead-slices=0 / no-splice / no-intra-refresh / no-ssim-rd / signhide / no-tskip / max-merge=3 / temporal-mvp / no-frame-dup / no-hme / no-analyze-src-pics / no-sao-non-deblock / selective-sao=0 / no-early-skip / no-rskip / no-fast-intra / no-tskip-fast / no-splitrd-skip / zone-count=0 / no-strict-cbr / no-rc-grain / no-const-vbv / sar=0 / overscan=0 / videoformat=5 / range=0 / colorprim=9 / transfer=16 / colormatrix=9 / chromaloc=0 / display-window=0 / master-display=G(13250,34500)B(7500,3000)R(34000,16000)WP(15635,16450)L(10000000,1) / cll=1000,400 / min-luma=0 / max-luma=1023 / log2-max-poc-lsb=8 / vui-timing-info / vui-hrd-info / slices=1 / no-opt-qp-pps / no-opt-ref-list-length-pps / no-multi-pass-opt-rps / scenecut-bias=0.05 / hist-threshold=0.01 / no-opt-cu-delta-qp / no-aq-motion / hdr10 / hdr10-opt / no-dhdr10-opt / no-idr-recovery-sei / analysis-reuse-level=0 / analysis-save-reuse-level=0 / analysis-load-reuse-level=0 / scale-factor=0 / refine-intra=0 / refine-inter=0 / refine-mv=1 / refine-ctu-distortion=0 / no-limit-sao / ctu-info=0 / no-lowpass-dct / refine-analysis-type=0 / copy-pic=1 / max-ausize-factor=1.0 / no-dynamic-refine / no-single-sei / no-hevc-aq / no-svt / no-field / qp-adaptation-range=1.00 / no-scenecut-aware-qpconformance-window-offsets / right=0 / bottom=0 / NTM4NzU=
  36. Default                                  : Yes
  37. Forced                                   : No
  38. Color range                              : Limited
  39. Color primaries                          : BT.2020
  40. Transfer characteristics                 : PQ
  41. Matrix coefficients                      : BT.2020 non-constant
  42. Mastering display color primaries        : Display P3
  43. Mastering display luminance              : min: 0.0001 cd/m2, max: 1000 cd/m2
  44. Maximum Content Light Level              : 1000 cd/m2
  45. Maximum Frame-Average Light Level        : 400 cd/m2
  46. Audio
  47. ID                                       : 2
  48. Format                                   : PCM
  49. Format settings                          : Little / Signed
  50. Codec ID                                 : A_PCM/INT/LIT
  51. Duration                                 : 1 h 39 min
  52. Bit rate mode                            : Constant
  53. Bit rate                                 : 1 536 kb/s
  54. Channel(s)                               : 2 channels
  55. Sampling rate                            : 48.0 kHz
  56. Frame rate                               : 25.000 FPS (1920 SPF)
  57. Bit depth                                : 16 bits
  58. Stream size                              : 1.06 GiB (5%)
  59. Language                                 : Chinese
  60. Default                                  : Yes
  61. Forced                                   : No
  62. Text
  63. ID                                       : 3
  64. Format                                   : PGS
  65. Muxing mode                              : zlib
  66. Codec ID                                 : S_HDMV/PGS
  67. Codec ID/Info                            : Picture based subtitle format used on BDs/HD-DVDs
  68. Duration                                 : 1 h 36 min
  69. Bit rate                                 : 28.4 kb/s
  70. Count of elements                        : 2046
  71. Stream size                              : 19.6 MiB (0%)
  72. Language                                 : Chinese
  73. Default                                  : Yes
  74. Forced                                   : No

复制代码










回复

使用道具 举报

蓝光币
2
发表于 4 天前 | 显示全部楼层
楼主发贴辛苦了,谢谢楼主分享!我觉得蓝光电影网是注册对了!
回复 支持 反对

使用道具 举报

蓝光币
8
发表于 3 天前 | 显示全部楼层
谢谢分享资源
回复 支持 反对

使用道具 举报

蓝光币
1
发表于 3 天前 | 显示全部楼层

这个帖子不回对不起自己!我想我是一天也不能离开蓝光电影网。
回复 支持 反对

使用道具 举报

懒得打字嘛,点击右侧快捷回复 【右侧内容,后台自定义】
您需要登录后才可以回帖 登录 | 立即加入

本版积分规则

Archiver|小黑屋| 蓝光电影网 |网站地图

Copyright © 2021 Comsenz Inc. Powered by 蓝光电影网

蓝光电影网

本站内容由用户自主分享和转载自互联网,转载目的在于传递更多信息,并不代表本网赞同其观点和对其真实性负责。

如有侵权、违反国家法律政策行为,请联系我们,我们会第一时间及时清除和处理!

举报反馈邮箱:[email protected]

快速回复 返回顶部 返回列表