找回密码

蓝光电影网

查看: 92|回复: 0

[动作] 未来水世界[国英多音轨/中英字幕].Waterworld.1995.BluRay.1080p.x265.10bit.2Audio-MiniHD 7.49GB

[复制链接]
蓝光币
7
发表于 2022-5-15 14:48:00 | 显示全部楼层 |阅读模式
未来水天下[国英多音轨/中英字幕].Waterworld.1995.BluRay.1080p.x265.10bit.2Audio-MiniHD 7.49GB-1.jpeg

◎译  名 未来水天下 / 水天下
◎片  名 Waterworld
◎年  代 1995
◎产  地 美国
◎类  别 行动 / 科幻 / 惊悚 / 冒险
◎语  言 英语
◎上映日期 1995-07-28
◎IMDb链接 https://www.imdb.com/title/tt0114898/
◎豆瓣评分 7.5/10 (73190人评价)
◎豆瓣链接 https://movie.douban.com/subject/1294037/
◎片  长 135 分钟
◎导  演 凯文·雷诺兹 Kevin Reynolds
◎编  剧 大卫·杜西 David Twohy
       乔斯·韦登 Joss Whedon
◎演  员 凯文·科斯特纳 Kevin Costner
       珍妮·特里普里霍恩 Jeanne Tripplehorn
       蒂娜·米乔里诺 Tina Majorino
       瑞克阿维莱斯 Rick Aviles
       吴永庆 Yongqing Wu
       徐光宇 Guangyu Xu
       杰克·科勒尔 Jack Kehler
       金·寇兹 Kim Coates
       丹尼斯·霍珀 Dennis Hopper
       约翰·戴维斯 John Davis
       迪安·塞姆勒 Dean Semler
       大卫·鲁宾 David Rubin
       戴维·F·克拉森 David F. Klassen
       南茜·黑格 Nancy Haigh
       丹尼斯·加斯纳 Dennis Gassner
       John Bloomfield John Bloomfield
       戴维·勒罗伊·安德森 David LeRoy Anderson
       Elle Elliott Elle Elliott
       James Lee McCoy James Lee McCoy
       Jeanne Van Phue Jeanne Van Phue
       Francisco X. Pérez Francisco X. Pérez
       Joe Colwell Joe Colwell
       Janis Clark Janis Clark
       大卫·R·艾里斯 David R. Ellis
       大卫·萨迪 David Sardi
       温迪·罗杰斯 Wendy Rogers
       科林·德罗布尼斯 Colin Drobnis
       迈克尔·J·麦卡利斯特尔 Michael J. McAlister
       Theresa Ellis Theresa Ellis
       布拉德·库恩 Brad Kuehn
       罗布·霍奇森 Rob Hodgson
       道格·艾凯勒尔 Doug Ikeler
       卡林·乔伊 Karin Joy
       John E. Sasaki John E. Sasaki
       内尔森·塞普维达 Nelson Sepulveda
       David A. Smith David A. Smith
       Chris Watts Chris Watts
       比尔·凯斯滕豪佛 Bill Westenhofer
       Kimberly K. Nelson Kimberly K. Nelson
       罗宾·格里芬 Robin Griffin
       马克·斯泰特森 Mark Stetson
       杰奎·巴恩布鲁克 Jacquie Barnbrook
       罗伯特·斯普尔洛克 Robert Spurlock
       理查德·金 Richard King
◎简  介
  公元2500年,地球两极冰川大量消融,地球成了一片汪洋。人们只能在水上保存,建起了水上浮岛,土壤成了稀有之物。                                    
                                一天,来了一个孤独的海行者(凯文?科斯特纳 Kevin Costner 饰),他用了一罐土壤换了淡水和番茄苗。正当他要分开时,当地人发现他居然长着鳃和蹼,以为他是怪物,把他关了起来,预备过两天将他正法。                                    
                                光阴,海盗攻击了浮岛,海伦(珍妮?特里普里霍恩 Jeanne Tripplehorn 饰)和她的养女伊萝娜(蒂娜?米乔里诺 Tina Majorino  饰)没能遇上出逃的救生船,她们救出了海行者。海行者凭着过人的机智和勇敢,带着海伦和依蒙娜逃了出来。                                    
                                本来,海盗的方针只是伊萝娜,依蒙娜的身世藏着一个惊人的奥秘……
◎获奖情况 (共2项)
  第68届奥斯卡金像奖 (1996)
  最好声响(提名)
  第49届英国电影学院奖 (1996)
  电影奖 最好特别视觉结果(提名)
  1. ##### MediaInfo ######
  2. General
  3. Unique ID                                : 225204360785743640027666668703492260146 (0xA96CC83E8BEC78139FAE1A2A3D12C132)
  4. Complete name                            : Waterworld.1995.BluRay.1080p.x265.10bit.2Audio-MiniHD.mkv
  5. Format                                   : Matroska
  6. Format version                           : Version 4
  7. File size                                : 7.49 GiB
  8. Duration                                 : 2 h 15 min
  9. Overall bit rate                         : 7 931 kb/s
  10. Encoded date                             : UTC 2016-06-06 05:07:55
  11. Writing application                      : mkvmerge v9.1.0 ('Little Earthquakes') 32bit
  12. Writing library                          : libebml v1.3.3 + libmatroska v1.4.4
  13. Video
  14. ID                                       : 1
  15. Format                                   : HEVC
  16. Format/Info                              : High Efficiency Video Coding
  17. Format profile                           : Main [email protected]@Main
  18. Codec ID                                 : V_MPEGH/ISO/HEVC
  19. Duration                                 : 2 h 15 min
  20. Bit rate                                 : 6 685 kb/s
  21. Width                                    : 1 920 pixels
  22. Height                                   : 1 040 pixels
  23. Display aspect ratio                     : 1.85:1
  24. Frame rate mode                          : Constant
  25. Frame rate                               : 23.976 (24000/1001/53875) FPS
  26. Color space                              : YUV
  27. Chroma subsampling                       : 4:2:0
  28. Bit depth                                : 10 bits
  29. Bits/(Pixel*Frame)                       : 0.140
  30. Stream size                              : 6.31 GiB (84%)
  31. Writing library                          : x265 1.9+183-4723933fdec9:[Windows][GCC 5.3.0][64 bit] 10bit
  32. Encoding settings                        : wpp / ctu=32 / min-cu-size=8 / max-tu-size=16 / tu-intra-depth=2 / tu-inter-depth=2 / me=2 / subme=5 / merange=21 / no-rect / no-amp / max-merge=3 / temporal-mvp / no-early-skip / no-recursion-skip / rdpenalty=1 / no-tskip / no-tskip-fast / no-strong-intra-smoothing / no-lossless / no-cu-lossless / no-constrained-intra / no-fast-intra / no-open-gop / no-temporal-layers / interlace=0 / keyint=360 / min-keyint=1 / NTM4NzU=uuDQuD2mJt9fsCf / scenecut=40 / rc-lookahead=60 / lookahead-slices=4 / bframes=8 / bframe-bias=0 / b-adapt=2 / ref=5 / limit-refs=3 / limit-modes / weightp / weightb / aq-mode=1 / qg-size=16 / aq-strength=0.50 / cbqpoffs=0 / crqpoffs=0 / rd=4 / psy-rd=0.30 / rdoq-level=1 / psy-rdoq=5.00 / no-rd-refine / signhide / deblock=0:0 / no-sao / no-sao-non-deblock / b-pyramid / cutree / no-intra-refresh / rc=crf / crf=21.0 / qcomp=0.70 / qpmin=0 / qpmax=51 / qpstep=4 / ipratio=1.40 / pbratio=1.30
  33. Default                                  : Yes
  34. Forced                                   : No
  35. Color range                              : Limited
  36. Color primaries                          : BT.709
  37. Audio #1
  38. ID                                       : 2
  39. Format                                   : AC-3
  40. Format/Info                              : Audio Coding 3
  41. Commercial name                          : Dolby Digital
  42. Codec ID                                 : A_AC3
  43. Duration                                 : 2 h 15 min
  44. Bit rate mode                            : Constant
  45. Bit rate                                 : 640 kb/s
  46. Channel(s)                               : 6 channels
  47. Channel layout                           : L R C LFE Ls Rs
  48. Sampling rate                            : 48.0 kHz
  49. Frame rate                               : 31.250 FPS (1536 SPF)
  50. Compression mode                         : Lossy
  51. Stream size                              : 619 MiB (8%)
  52. Language                                 : English
  53. Service kind                             : Complete Main
  54. Default                                  : Yes
  55. Forced                                   : No
  56. Audio #2
  57. ID                                       : 3
  58. Format                                   : AC-3
  59. Format/Info                              : Audio Coding 3
  60. Commercial name                          : Dolby Digital
  61. Codec ID                                 : A_AC3
  62. Duration                                 : 2 h 15 min
  63. Bit rate mode                            : Constant
  64. Bit rate                                 : 448 kb/s
  65. Channel(s)                               : 6 channels
  66. Channel layout                           : L R C LFE Ls Rs
  67. Sampling rate                            : 48.0 kHz
  68. Frame rate                               : 31.250 FPS (1536 SPF)
  69. Compression mode                         : Lossy
  70. Stream size                              : 433 MiB (6%)
  71. Language                                 : Chinese
  72. Service kind                             : Complete Main
  73. Default                                  : No
  74. Forced                                   : No
  75. Text #1
  76. ID                                       : 4
  77. Format                                   : PGS
  78. Muxing mode                              : zlib
  79. Codec ID                                 : S_HDMV/PGS
  80. Codec ID/Info                            : Picture based subtitle format used on BDs/HD-DVDs
  81. Language                                 : English
  82. Default                                  : Yes
  83. Forced                                   : No
  84. Text #2
  85. ID                                       : 5
  86. Format                                   : PGS
  87. Muxing mode                              : zlib
  88. Codec ID                                 : S_HDMV/PGS
  89. Codec ID/Info                            : Picture based subtitle format used on BDs/HD-DVDs
  90. Language                                 : Chinese
  91. Default                                  : No
  92. Forced                                   : No
  93. Text #3
  94. ID                                       : 6
  95. Format                                   : PGS
  96. Muxing mode                              : zlib
  97. Codec ID                                 : S_HDMV/PGS
  98. Codec ID/Info                            : Picture based subtitle format used on BDs/HD-DVDs
  99. Language                                 : Chinese
  100. Default                                  : No
  101. Forced                                   : No
  102. Text #4
  103. ID                                       : 7
  104. Format                                   : PGS
  105. Muxing mode                              : zlib
  106. Codec ID                                 : S_HDMV/PGS
  107. Codec ID/Info                            : Picture based subtitle format used on BDs/HD-DVDs
  108. Language                                 : Chinese
  109. Default                                  : No
  110. Forced                                   : No
  111. Text #5
  112. ID                                       : 8
  113. Format                                   : PGS
  114. Muxing mode                              : zlib
  115. Codec ID                                 : S_HDMV/PGS
  116. Codec ID/Info                            : Picture based subtitle format used on BDs/HD-DVDs
  117. Language                                 : Chinese
  118. Default                                  : No
  119. Forced                                   : No
  120. Menu
  121. 00:00:00.000                             : en:Chapter 01
  122. 00:06:29.011                             : en:Chapter 02
  123. 00:09:56.051                             : en:Chapter 03
  124. 00:25:33.864                             : en:Chapter 04
  125. 00:53:20.739                             : en:Chapter 05
  126. 00:59:36.947                             : en:Chapter 06
  127. 01:15:04.291                             : en:Chapter 07
  128. 01:21:22.627                             : en:Chapter 08
  129. 01:25:18.238                             : en:Chapter 09
  130. 01:39:30.255                             : en:Chapter 10
  131. 01:43:48.595                             : en:Chapter 11
  132. 01:49:08.041                             : en:Chapter 12
  133. 01:55:18.536                             : en:Chapter 13
  134. 01:57:06.394                             : en:Chapter 14
  135. 01:59:40.131                             : en:Chapter 15
  136. 02:06:31.542                             : en:Chapter 16
复制代码


未来水天下[国英多音轨/中英字幕].Waterworld.1995.BluRay.1080p.x265.10bit.2Audio-MiniHD 7.49GB-2.jpeg
未来水天下[国英多音轨/中英字幕].Waterworld.1995.BluRay.1080p.x265.10bit.2Audio-MiniHD 7.49GB-3.jpeg
未来水天下[国英多音轨/中英字幕].Waterworld.1995.BluRay.1080p.x265.10bit.2Audio-MiniHD 7.49GB-4.jpeg
未来水天下[国英多音轨/中英字幕].Waterworld.1995.BluRay.1080p.x265.10bit.2Audio-MiniHD 7.49GB-5.jpeg
未来水天下[国英多音轨/中英字幕].Waterworld.1995.BluRay.1080p.x265.10bit.2Audio-MiniHD 7.49GB-6.jpeg
未来水天下[国英多音轨/中英字幕].Waterworld.1995.BluRay.1080p.x265.10bit.2Audio-MiniHD 7.49GB-7.jpeg










回复

使用道具 举报

懒得打字嘛,点击右侧快捷回复 【右侧内容,后台自定义】
您需要登录后才可以回帖 登录 | 立即加入

本版积分规则

Archiver|小黑屋| 蓝光电影网 |网站地图

Copyright © 2021 Comsenz Inc. Powered by 蓝光电影网

蓝光电影网

本站内容由用户自主分享和转载自互联网,转载目的在于传递更多信息,并不代表本网赞同其观点和对其真实性负责。

如有侵权、违反国家法律政策行为,请联系我们,我们会第一时间及时清除和处理!

举报反馈邮箱:[email protected]

快速回复 返回顶部 返回列表