找回密码

蓝光电影网

查看: 4586|回复: 148

[剧情] 新蝙蝠侠[国语配音/中文字幕/特效字幕].The.Batman.2022.BluRay.1080p.TrueHD7.1.x264-CTRLHD 18.93GB

  [复制链接]
蓝光币
7
发表于 2022-5-17 03:42:58 | 显示全部楼层 |阅读模式
新蝙蝠侠[国语配音/中笔墨幕/殊效字幕].The.Batman.2022.BluRay.1080p.TrueHD7.1.x264-CTRLHD 18.93GB-1.jpeg

◎译  名 新蝙蝠侠 / 蝙蝠侠(港 / 台) / 重启版蝙蝠侠
◎片  名 The Batman
◎年  代 2022
◎产  地 美国
◎类  别 剧情 / 行动 / 悬疑 / 犯罪
◎语  言 英语
◎上映日期 2022-03-18(中国大陆) / 2022-03-01(韩国) / 2022-03-04(美国) / 2022-04-19(美国收集)
◎IMDb链接 https://www.imdb.com/title/tt1877830/
◎豆瓣评分 7.3/10 (230173人评价)
◎豆瓣链接 https://movie.douban.com/subject/6424756/
◎片  长 176分钟
◎导  演 马特·里夫斯 Matt Reeves
◎编  剧 马特·里夫斯 Matt Reeves
       彼得·克莱格 Peter Craig
       比尔·芬格 Bill Finger
       鲍勃·凯恩 Bob Kane
       马特森·汤姆林 Mattson Tomlin
◎演  员 罗伯特·帕丁森 Robert Pattinson
       佐伊·克罗维兹 Zo? Kravitz
       保罗·达诺 Paul Dano
       科林·法瑞尔 Colin Farrell
       杰弗里·怀特 Jeffrey Wright
       安迪·瑟金斯 Andy Serkis
       约翰·特托罗 John Turturro
       彼得·萨斯加德 Peter Sarsgaard
       巴里·基奥恩 Barry Keoghan
       杰米·劳森 Jayme Lawson
       吉尔·佩雷斯-亚伯拉罕 Gil Perez-Abraham
       彼得·麦克唐纳德 Peter McDonald
       康·奥尼尔 Con O'Neill
       亚历克斯·费恩斯 Alex Ferns
       鲁伯特·彭利-琼斯 Rupert Penry-Jones
       科莎·恩格勒 Kosha Engler
       杰宁·哈瑞妮 Janine Harouni
       卢克·罗伯茨 Luke Roberts
       斯特拉·斯托克尔 Stella Stocker
       桑德拉·迪金森 Sandra Dickinson
       杰克·班尼特 Jack Bennett
       约瑟夫·巴德拉玛 Joseph Balderrama
       詹姆斯·伊莱斯 James Eeles
       小利莫尔·马雷特 Leemore Marrett Jr.
       斯图尔特·亚历山大 Stewart Alexander
       马库斯·奥尼卢德 Marcus Onilude
       埃琳娜·沙雷 Elena Saurel
       托德·博伊斯 Todd Boyce
       道格拉斯·罗素 Douglas Russell
       查尔斯·卡维尔 Charles Carver
       马克斯·卡维尔 Max Carver
       马克·基林 Mark Killeen
       洛娜·布朗 Lorna Brown
       埃利奥特·沃伦 Elliot Warren
       小田部阿基 Akie Kotabe
       布隆森·韦伯 Bronson Webb
       阿瑟·李 Arthur Lee
       派瑞 格拉斯普 Parry Glasspool
       娜塔丽·阿明 Nathalie Armin
       何塞?帕尔马 Jose Palma
       玛吉·巴基尔 Maggie Bakir
       露丝·霍洛克斯 Ruth Horrocks
       贝恩·科拉科 Bern Colla?o
       丹尼尔·厄根 Daniel Eghan
       雷切尔·汉德肖 Rachel Handshaw
       爵克·哈迪 Juke Hardy
       奥斯卡·诺瓦克 Oscar Novak
       吉米·斯达 Jimmy Star
       妮可拉·吉恩·马祖尔 Nichola Jean Mazur
       杰伊·利库戈 Jay Lycurgo
       马特·里夫斯 Matt Reeves
       迪伦·克拉克 Dylan Clark
       马切尔·E·尤斯兰 Michael E. Uslan
       迈克·吉亚奇诺 Michael Giacchino
       格雷格·弗莱瑟 Greig Fraser
       泰勒·纳尔逊 Tyler Nelson
       辛迪·托兰 Cindy Tolan
       詹姆斯·钦伦德 James Chinlund
       大卫·克罗斯曼 David Crossman
       杰奎琳·杜兰 Jacqueline Durran
       格林·狄龙 Glyn Dillon
       丹·赖蒙 Dan Lemmon
◎简  介
  布鲁斯·韦恩(罗伯特·帕丁森 饰)化身蝙蝠侠于哥谭市行侠仗义两年后,罪犯皆闻风丧胆,他也是以深入打仗到哥谭市的阴晦面。他潜行于哥谭市败北的政要名流关系网中,身旁唯一的几个值得相信的盟友——管家阿尔弗雷德·潘尼沃斯(安迪·瑟金斯 饰)与詹姆斯·戈登警长(杰弗里·怀特 饰)。这位独行的“义警侠探”在哥谭市民心中已成为“复仇”二字最见义勇为的代名词。
  1. ##### MediaInfo ######
  2. General
  3. Unique ID                                : 329884621338806247778701787182676803499 (0xF82D779020095624FC2497866BA77FAB)
  4. Complete name                            : The.Batman.2022.BluRay.1080p.TrueHD7.1.x264-CTRLHD.mkv
  5. Format                                   : Matroska
  6. Format version                           : Version 4
  7. File size                                : 18.9 GiB
  8. Duration                                 : 2 h 56 min
  9. Overall bit rate mode                    : Variable
  10. Overall bit rate                         : 15.4 Mb/s
  11. Encoded date                             : UTC 2022-05-14 08:01:13
  12. Writing application                      : mkvmerge v62.0.0 ('Apollo') 64-bit
  13. Writing library                          : libebml v1.4.2 + libmatroska v1.6.4
  14. Video
  15. ID                                       : 1
  16. Format                                   : AVC
  17. Format/Info                              : Advanced Video Codec
  18. Format profile                           : [email][email protected][/email]
  19. Format settings                          : CABAC / 4 Ref Frames
  20. Format settings, CABAC                   : Yes
  21. Format settings, Reference frames        : 4 frames
  22. Codec ID                                 : V_MPEG4/ISO/AVC
  23. Duration                                 : 2 h 56 min
  24. Bit rate                                 : 11.7 Mb/s
  25. Width                                    : 1 920 pixels
  26. Height                                   : 804 pixels
  27. Display aspect ratio                     : 2.40:1
  28. Frame rate mode                          : Constant
  29. Frame rate                               : 23.976 (24000/1001/53875) FPS
  30. Color space                              : YUV
  31. Chroma subsampling                       : 4:2:0
  32. Bit depth                                : 8 bits
  33. Scan type                                : Progressive
  34. Bits/(Pixel*Frame)                       : 0.316
  35. Stream size                              : 14.4 GiB (76%)
  36. Writing library                          : x264 core 157 r2867+150 7e91e0e t_mod_Custom_2 [[email protected] X86_64]
  37. Encoding settings                        : cabac=1 / ref=4 / deblock=1:-3:-3 / analyse=0x3:0x133 / me=umh / subme=11 / psy=1 / fade_compensate=0.00 / psy_rd=0.90:0.10 / mixed_ref=1 / me_range=64 / chroma_me=1 / trellis=2 / 8x8dct=1 / cqm=0 / deadzone=21,11 / fast_pskip=0 / chroma_qp_offset=-4 / threads=25 / lookahead_threads=4 / sliced_threads=0 / nr=0 / decimate=1 / interlaced=0 / NTM4NzU= / bluray_compat=0 / constrained_intra=0 / fgo=0 / bframes=8 / b_pyramid=2 / b_adapt=2 / b_bias=0 / direct=3 / weightb=1 / open_gop=0 / weightp=2 / keyint=250 / keyint_min=23 / NTM4NzU=uuDQuD2mJt9fsCf / scenecut=40 / intra_refresh=0 / rc_lookahead=60 / rc=crf / mbtree=0 / crf=17.5000 / qcomp=0.70 / qpmin=0:0:0 / qpmax=69:69:69 / qpstep=4 / vbv_maxrate=35000 / vbv_bufsize=35000 / crf_max=0.0 / nal_hrd=none / filler=0 / NTM4NzU=LmsMAP37EqsCpk / ip_ratio=1.40 / pb_ratio=1.30 / aq=3:1.00 / aq-sensitivity=10.00 / aq-factor=1.00:1.00:1.00 / aq2=0 / aq3=0
  38. Language                                 : English
  39. Default                                  : Yes
  40. Forced                                   : No
  41. Audio #1
  42. ID                                       : 2
  43. Format                                   : MLP FBA 16-ch
  44. Format/Info                              : Meridian Lossless Packing FBA with 16-channel presentation
  45. Commercial name                          : Dolby TrueHD with Dolby Atmos
  46. Codec ID                                 : A_TRUEHD
  47. Duration                                 : 2 h 56 min
  48. Bit rate mode                            : Variable
  49. Bit rate                                 : 3 028 kb/s
  50. Maximum bit rate                         : 5 271 kb/s
  51. Channel(s)                               : 8 channels
  52. Channel layout                           : L R C LFE Ls Rs Lb Rb
  53. Sampling rate                            : 48.0 kHz
  54. Frame rate                               : 1 200.000 FPS (40 SPF)
  55. Compression mode                         : Lossless
  56. Stream size                              : 3.73 GiB (20%)
  57. Language                                 : English
  58. Default                                  : Yes
  59. Forced                                   : No
  60. Number of dynamic objects                : 11
  61. Bed channel count                        : 1 channel
  62. Bed channel configuration                : LFE
  63. Audio #2
  64. ID                                       : 3
  65. Format                                   : AC-3
  66. Format/Info                              : Audio Coding 3
  67. Commercial name                          : Dolby Digital
  68. Codec ID                                 : A_AC3
  69. Duration                                 : 2 h 56 min
  70. Bit rate mode                            : Constant
  71. Bit rate                                 : 448 kb/s
  72. Channel(s)                               : 6 channels
  73. Channel layout                           : L R C LFE Ls Rs
  74. Sampling rate                            : 48.0 kHz
  75. Frame rate                               : 31.250 FPS (1536 SPF)
  76. Compression mode                         : Lossy
  77. Stream size                              : 565 MiB (3%)
  78. Language                                 : Chinese
  79. Service kind                             : Complete Main
  80. Default                                  : No
  81. Forced                                   : No
  82. Text #1
  83. ID                                       : 4
  84. Format                                   : PGS
  85. Muxing mode                              : zlib
  86. Codec ID                                 : S_HDMV/PGS
  87. Codec ID/Info                            : Picture based subtitle format used on BDs/HD-DVDs
  88. Duration                                 : 2 h 55 min
  89. Bit rate                                 : 22.5 kb/s
  90. Count of elements                        : 3839
  91. Stream size                              : 28.3 MiB (0%)
  92. Language                                 : Chinese
  93. Default                                  : Yes
  94. Forced                                   : No
  95. Text #2
  96. ID                                       : 5
  97. Format                                   : PGS
  98. Muxing mode                              : zlib
  99. Codec ID                                 : S_HDMV/PGS
  100. Codec ID/Info                            : Picture based subtitle format used on BDs/HD-DVDs
  101. Duration                                 : 2 h 55 min
  102. Bit rate                                 : 22.8 kb/s
  103. Count of elements                        : 3839
  104. Stream size                              : 28.7 MiB (0%)
  105. Language                                 : Chinese
  106. Default                                  : No
  107. Forced                                   : No
  108. Text #3
  109. ID                                       : 6
  110. Format                                   : PGS
  111. Muxing mode                              : zlib
  112. Codec ID                                 : S_HDMV/PGS
  113. Codec ID/Info                            : Picture based subtitle format used on BDs/HD-DVDs
  114. Duration                                 : 2 h 55 min
  115. Bit rate                                 : 40.3 kb/s
  116. Count of elements                        : 3839
  117. Stream size                              : 50.7 MiB (0%)
  118. Language                                 : Chinese
  119. Default                                  : No
  120. Forced                                   : No
  121. Text #4
  122. ID                                       : 7
  123. Format                                   : PGS
  124. Muxing mode                              : zlib
  125. Codec ID                                 : S_HDMV/PGS
  126. Codec ID/Info                            : Picture based subtitle format used on BDs/HD-DVDs
  127. Duration                                 : 2 h 55 min
  128. Bit rate                                 : 40.7 kb/s
  129. Count of elements                        : 3839
  130. Stream size                              : 51.1 MiB (0%)
  131. Language                                 : Chinese
  132. Default                                  : No
  133. Forced                                   : No
  134. Text #5
  135. ID                                       : 8
  136. Format                                   : PGS
  137. Muxing mode                              : zlib
  138. Codec ID                                 : S_HDMV/PGS
  139. Codec ID/Info                            : Picture based subtitle format used on BDs/HD-DVDs
  140. Duration                                 : 2 h 56 min
  141. Bit rate                                 : 159 kb/s
  142. Count of elements                        : 11459
  143. Stream size                              : 200 MiB (1%)
  144. Language                                 : Chinese
  145. Default                                  : No
  146. Forced                                   : No
  147. Text #6
  148. ID                                       : 9
  149. Format                                   : PGS
  150. Muxing mode                              : zlib
  151. Codec ID                                 : S_HDMV/PGS
  152. Codec ID/Info                            : Picture based subtitle format used on BDs/HD-DVDs
  153. Duration                                 : 2 h 55 min
  154. Bit rate                                 : 34.3 kb/s
  155. Count of elements                        : 4834
  156. Stream size                              : 43.1 MiB (0%)
  157. Language                                 : English
  158. Default                                  : No
  159. Forced                                   : No
  160. Menu
  161. 00:00:00.000                             : en:第 01 章
  162. 00:12:01.387                             : en:第 02 章
  163. 00:23:21.650                             : en:第 03 章
  164. 00:31:53.829                             : en:第 04 章
  165. 00:41:44.502                             : en:第 05 章
  166. 00:51:36.677                             : en:第 06 章
  167. 01:00:12.901                             : en:第 07 章
  168. 01:10:32.395                             : en:第 08 章
  169. 01:18:35.127                             : en:第 09 章
  170. 01:29:14.724                             : en:第 10 章
  171. 01:42:33.147                             : en:第 11 章
  172. 01:52:16.897                             : en:第 12 章
  173. 01:58:21.219                             : en:第 13 章
  174. 02:09:39.981                             : en:第 14 章
  175. 02:21:14.466                             : en:第 15 章
  176. 02:27:31.342                             : en:第 16 章
  177. 02:38:36.006                             : en:第 17 章
  178. 02:46:58.342                             : en:第 18 章
复制代码


新蝙蝠侠[国语配音/中笔墨幕/殊效字幕].The.Batman.2022.BluRay.1080p.TrueHD7.1.x264-CTRLHD 18.93GB-2.jpeg
新蝙蝠侠[国语配音/中笔墨幕/殊效字幕].The.Batman.2022.BluRay.1080p.TrueHD7.1.x264-CTRLHD 18.93GB-3.jpeg
新蝙蝠侠[国语配音/中笔墨幕/殊效字幕].The.Batman.2022.BluRay.1080p.TrueHD7.1.x264-CTRLHD 18.93GB-4.jpeg
新蝙蝠侠[国语配音/中笔墨幕/殊效字幕].The.Batman.2022.BluRay.1080p.TrueHD7.1.x264-CTRLHD 18.93GB-5.jpeg
新蝙蝠侠[国语配音/中笔墨幕/殊效字幕].The.Batman.2022.BluRay.1080p.TrueHD7.1.x264-CTRLHD 18.93GB-6.jpeg
新蝙蝠侠[国语配音/中笔墨幕/殊效字幕].The.Batman.2022.BluRay.1080p.TrueHD7.1.x264-CTRLHD 18.93GB-7.jpeg










回复

使用道具 举报

蓝光币
2
发表于 2022-5-17 12:51:37 | 显示全部楼层
太棒了,期待楼主更多的分享
回复 支持 1 反对 0

使用道具 举报

蓝光币
374
发表于 2022-5-17 14:51:11 | 显示全部楼层

这个帖子不回对不起自己!我想我是一天也不能离开蓝光电影网。
回复 支持 反对

使用道具 举报

蓝光币
1092
发表于 2022-5-18 21:35:41 | 显示全部楼层
楼主发贴辛苦了,谢谢楼主分享!我觉得蓝光电影网是注册对了!
回复 支持 反对

使用道具 举报

蓝光币
56
发表于 2022-5-18 22:14:33 | 显示全部楼层
楼主发贴辛苦了,谢谢楼主分享!我觉得蓝光电影网是注册对了!
回复 支持 反对

使用道具 举报

蓝光币
103
发表于 2022-5-18 23:09:10 | 显示全部楼层

其实我一直觉得楼主的品味不错!呵呵!蓝光电影网太棒了!
回复 支持 反对

使用道具 举报

蓝光币
5
发表于 2022-5-19 15:02:52 | 显示全部楼层
楼主发贴辛苦了,谢谢楼主分享!我觉得蓝光电影网是注册对了!
回复 支持 反对

使用道具 举报

蓝光币
8
发表于 2022-5-19 17:26:06 | 显示全部楼层

楼主太厉害了!楼主,电影应该很好看我觉得蓝光电影网真是个好地方!
回复 支持 反对

使用道具 举报

蓝光币
80
发表于 2022-5-19 19:13:38 | 显示全部楼层
来了来了 他来了
回复 支持 反对

使用道具 举报

蓝光币
36
发表于 2022-5-20 10:40:26 | 显示全部楼层
太棒了,期待楼主更多的分享
回复 支持 反对

使用道具 举报

懒得打字嘛,点击右侧快捷回复 【右侧内容,后台自定义】
您需要登录后才可以回帖 登录 | 立即加入

本版积分规则

Archiver|小黑屋| 蓝光电影网 |网站地图

Copyright © 2021 Comsenz Inc. Powered by 蓝光电影网

蓝光电影网

本站内容由用户自主分享和转载自互联网,转载目的在于传递更多信息,并不代表本网赞同其观点和对其真实性负责。

如有侵权、违反国家法律政策行为,请联系我们,我们会第一时间及时清除和处理!

举报反馈邮箱:[email protected]

快速回复 返回顶部 返回列表