找回密码

蓝光电影网

查看: 137|回复: 1

[2160p] 刺猬索尼克2 Sonic.the.Hedgehog.2.2022.2160p.WEB-DL.DDP5.1.Atmos.DV.MP4.x265-DVSUX 12.74GB

[复制链接]
蓝光币
872
发表于 2022-5-17 22:12:03 | 显示全部楼层 |阅读模式


◎译  名 刺猬索尼克2 / 超音鼠大电影2(港) / 音速小子2(台)
◎片  名 Sonic the Hedgehog 2
◎年  代 2022
◎产  地 美国 / 日本
◎类  别 笑剧 / 行动 / 科幻 / 动画 / 冒险
◎语  言 英语
◎上映日期 2022(中国大陆) / 2022-04-08(美国)
◎IMDb链接 https://www.imdb.com/title/tt12412888/
◎豆瓣链接 https://movie.douban.com/subject/35083986/
◎片  长 122分钟
◎导  演 杰夫·福勒 Jeff Fowler (id:1024763)
◎编  剧 帕特里克·凯西 Patrick Casey (id:1427778)
       乔什·米勒 Josh Miller (id:1028358)
       约翰·惠廷顿 John Whittington (id:1368515)
◎演  员 詹姆斯·麦斯登 James Marsden (id:1048023)
       金·凯瑞 Jim Carrey (id:1054438)
       本·施瓦茨 Ben Schwartz (id:1314604)
       提卡·森普特 Tika Sumpter (id:1308681)
       伊德里斯·艾尔巴 Idris Elba (id:1049501)
       娜塔莎·罗斯韦尔 Natasha Rothwell (id:1362240)
       亚当·佩里 Adam Pally (id:1314810)
       谢默·摩尔 Shemar Moore (id:1000060)
       李·马贾道布 Lee Majdoub (id:1235840)
       科琳·欧肖内希 Colleen O'Shaughnessey (id:1127809)
       梅洛德·诺西普·尼曼 Melody Nosipho Niemann (id:1431330)
       汤姆·巴特勒 Tom Butler (id:1328973)
       布拉德·卡利利莫库 Brad Kalilimoku (id:1470005)
       杰夫·桑卡 Jeff Sanca (id:1197200)
       伊丽莎白·鲍恩 Elizabeth Bowen (id:1383583)
       多恩·列夫 Don Lew (id:1303017)
       里斯·威廉姆斯 Rhys Williams (id:1168424)
       西蒙·钱 Simon Chin (id:1194078)
       弗雷泽·科比特 Fraser Corbett (id:1239370)
       奎因·厄利 Quinn Early (id:1263459)
       马库斯·奥雷里奥 Marcus Aurelio (id:1464850)
       尼托·拉里奥萨 Nito Larioza (id:1209344)
       迈克·鲁菲诺 Mike Rufino (id:1304525)
       詹姆斯·兰索恩 James Ransone (id:1147933)
       琼基·XL Junkie XL (id:1037776)
◎简  介

  索尼克在绿丘镇安置下来以后,就急着要证实自己有才能成为一位实在的豪杰。当蛋头博士带着全新的同伴纳克鲁斯,又返来寻觅一块气力强大足以扑灭人类文化的翡翠的时辰,他就面临了另一个严重的考验。此次索尼克和他自己的仆从塔尔斯携手合作,一路踏上一场周游天下的冒险旅程,希望能在那块翡翠落入好人手中之前先找到它。
  1. Video
  2. ID                                       : 1
  3. Format                                   : HEVC
  4. Format/Info                              : High Efficiency Video Coding
  5. Format profile                           : Main [email protected]@High
  6. HDR format                               : Dolby Vision, Version 1.0, dvhe.05.06, BL+RPU
  7. Codec ID                                 : dvhe
  8. Codec ID/Info                            : High Efficiency Video Coding with Dolby Vision
  9. Duration                                 : 2 h 2 min
  10. Bit rate                                 : 14.1 Mb/s
  11. Width                                    : 3 840 pixels
  12. Height                                   : 1 608 pixels
  13. Original height                          : 1 606 pixels
  14. Display aspect ratio                     : 2.40:1
  15. Original display aspect ratio            : 2.40:1
  16. Frame rate mode                          : Constant
  17. Frame rate                               : 23.976 (24000/1001/189150) FPS
  18. Color space                              : YUV
  19. Chroma subsampling                       : 4:2:0
  20. Bit depth                                : 10 bits
  21. Bits/(Pixel*Frame)                       : 0.096
  22. Stream size                              : 12.1 GiB (95%)
  23. Default                                  : Yes
  24. Alternate group                          : 1
  25. Encoded date                             : UTC 2022-05-17 13:22:16
  26. Tagged date                              : UTC 2022-05-17 13:30:18
  27. Codec configuration box                  : hvcC+dvcC
  28. Audio
  29. ID                                       : 2
  30. Format                                   : E-AC-3 JOC
  31. Format/Info                              : Enhanced AC-3 with Joint Object Coding
  32. Commercial name                          : Dolby Digital Plus with Dolby Atmos
  33. Codec ID                                 : ec-3
  34. Duration                                 : 2 h 2 min
  35. Bit rate mode                            : Constant
  36. Bit rate                                 : 768 kb/s
  37. Maximum bit rate                         : 811 kb/s
  38. Channel(s)                               : 6 channels
  39. Channel layout                           : L R C LFE Ls Rs
  40. Sampling rate                            : 48.0 kHz
  41. Frame rate                               : 31.250 FPS (1536 SPF)
  42. Compression mode                         : Lossy
  43. Stream size                              : 672 MiB (5%)
  44. Title                                    : English
  45. Language                                 : English
  46. Service kind                             : Complete Main
  47. Default                                  : Yes
  48. Alternate group                          : 1
  49. Tagged date                              : UTC 2022-05-17 13:30:18
  50. Complexity index                         : Not present / 16
  51. Number of dynamic objects                : 15
  52. Bed channel count                        : 1 channel
  53. Bed channel configuration                : LFE
  54. Text #1
  55. ID                                       : 3
  56. Format                                   : Timed Text
  57. Codec ID                                 : tx3g
  58. Duration                                 : 1 h 53 min
  59. Bit rate mode                            : Variable
  60. Bit rate                                 : 79 b/s
  61. Stream size                              : 66.1 KiB (0%)
  62. Title                                    : English
  63. Language                                 : English
  64. Forced                                   : No
  65. Encoded date                             : UTC 2022-05-17 13:30:18
  66. Tagged date                              : UTC 2022-05-17 13:30:18
  67. Text #2
  68. ID                                       : 4
  69. Format                                   : Timed Text
  70. Codec ID                                 : tx3g
  71. Duration                                 : 1 h 22 min
  72. Bit rate mode                            : Variable
  73. Bit rate                                 : 0 b/s
  74. Stream size                              : 198 Bytes (0%)
  75. Title                                    : English
  76. Language                                 : English
  77. Forced                                   : No
  78. Encoded date                             : UTC 2022-05-17 13:30:18
  79. Tagged date                              : UTC 2022-05-17 13:30:18
  80. Text #3
  81. ID                                       : 5
  82. Format                                   : Timed Text
  83. Codec ID                                 : tx3g
  84. Duration                                 : 1 h 53 min
  85. Bit rate mode                            : Variable
  86. Bit rate                                 : 70 b/s
  87. Stream size                              : 58.1 KiB (0%)
  88. Title                                    : English
  89. Language                                 : English
  90. Forced                                   : No
  91. Encoded date                             : UTC 2022-05-17 13:30:18
  92. Tagged date                              : UTC 2022-05-17 13:30:18
  93. Text #4
  94. ID                                       : 6
  95. Format                                   : Timed Text
  96. Codec ID                                 : tx3g
  97. Duration                                 : 2 h 2 min
  98. Bit rate mode                            : Variable
  99. Bit rate                                 : 53 b/s
  100. Stream size                              : 47.1 KiB (0%)
  101. Title                                    : Chinese-Traditional
  102. Language                                 : Chinese
  103. Forced                                   : No
  104. Encoded date                             : UTC 2022-05-17 13:30:18
  105. Tagged date                              : UTC 2022-05-17 13:30:18
  106. Text #5
  107. ID                                       : 7
  108. Format                                   : Timed Text
  109. Codec ID                                 : tx3g
  110. Duration                                 : 2 h 2 min
  111. Bit rate mode                            : Variable
  112. Bit rate                                 : 54 b/s
  113. Stream size                              : 48.2 KiB (0%)
  114. Title                                    : Korean
  115. Language                                 : Korean
  116. Forced                                   : No
  117. Encoded date                             : UTC 2022-05-17 13:30:18
  118. Tagged date                              : UTC 2022-05-17 13:30:18
复制代码







                                       
                                       

                                       
                                       
                                       




回复

使用道具 举报

蓝光币
65
发表于 2022-5-18 08:28:20 | 显示全部楼层

感谢楼主的无私分享!要想蓝光电影网好 就靠你我他
回复 支持 反对

使用道具 举报

懒得打字嘛,点击右侧快捷回复 【右侧内容,后台自定义】
您需要登录后才可以回帖 登录 | 立即加入

本版积分规则

Archiver|小黑屋| 蓝光电影网 |网站地图

Copyright © 2021 Comsenz Inc. Powered by 蓝光电影网

蓝光电影网

本站内容由用户自主分享和转载自互联网,转载目的在于传递更多信息,并不代表本网赞同其观点和对其真实性负责。

如有侵权、违反国家法律政策行为,请联系我们,我们会第一时间及时清除和处理!

举报反馈邮箱:[email protected]

快速回复 返回顶部 返回列表