找回密码

蓝光电影网

查看: 77|回复: 0

[喜剧] 刺猬索尼克2 Sonic.the.Hedgehog.2.2022.1080p.WEBRip.DDP5.1.Atmos.x264-NOGRP 6.23GB

[复制链接]
蓝光币
872
发表于 2022-5-17 21:29:04 | 显示全部楼层 |阅读模式


◎译  名 刺猬索尼克2 / 超音鼠大电影2(港) / 音速小子2(台)
◎片  名 Sonic the Hedgehog 2
◎年  代 2022
◎产  地 美国 / 日本
◎类  别 笑剧 / 行动 / 科幻 / 动画 / 冒险
◎语  言 英语
◎上映日期 2022(中国大陆) / 2022-04-08(美国)
◎IMDb链接 https://www.imdb.com/title/tt12412888/
◎豆瓣链接 https://movie.douban.com/subject/35083986/
◎片  长 122分钟
◎导  演 杰夫·福勒 Jeff Fowler (id:1024763)
◎编  剧 帕特里克·凯西 Patrick Casey (id:1427778)
       乔什·米勒 Josh Miller (id:1028358)
       约翰·惠廷顿 John Whittington (id:1368515)
◎演  员 詹姆斯·麦斯登 James Marsden (id:1048023)
       金·凯瑞 Jim Carrey (id:1054438)
       本·施瓦茨 Ben Schwartz (id:1314604)
       提卡·森普特 Tika Sumpter (id:1308681)
       伊德里斯·艾尔巴 Idris Elba (id:1049501)
       娜塔莎·罗斯韦尔 Natasha Rothwell (id:1362240)
       亚当·佩里 Adam Pally (id:1314810)
       谢默·摩尔 Shemar Moore (id:1000060)
       李·马贾道布 Lee Majdoub (id:1235840)
       科琳·欧肖内希 Colleen O'Shaughnessey (id:1127809)
       梅洛德·诺西普·尼曼 Melody Nosipho Niemann (id:1431330)
       汤姆·巴特勒 Tom Butler (id:1328973)
       布拉德·卡利利莫库 Brad Kalilimoku (id:1470005)
       杰夫·桑卡 Jeff Sanca (id:1197200)
       伊丽莎白·鲍恩 Elizabeth Bowen (id:1383583)
       多恩·列夫 Don Lew (id:1303017)
       里斯·威廉姆斯 Rhys Williams (id:1168424)
       西蒙·钱 Simon Chin (id:1194078)
       弗雷泽·科比特 Fraser Corbett (id:1239370)
       奎因·厄利 Quinn Early (id:1263459)
       马库斯·奥雷里奥 Marcus Aurelio (id:1464850)
       尼托·拉里奥萨 Nito Larioza (id:1209344)
       迈克·鲁菲诺 Mike Rufino (id:1304525)
       詹姆斯·兰索恩 James Ransone (id:1147933)
       琼基·XL Junkie XL (id:1037776)
◎简  介

  索尼克在绿丘镇安置下来以后,就急着要证实自己有才能成为一位实在的豪杰。当蛋头博士带着全新的同伴纳克鲁斯,又返来寻觅一块气力强大足以扑灭人类文化的翡翠的时辰,他就面临了另一个严重的考验。此次索尼克和他自己的仆从塔尔斯携手合作,一路踏上一场周游天下的冒险旅程,希望能在那块翡翠落入好人手中之前先找到它。
  1. Video
  2. ID                                       : 1
  3. Format                                   : AVC
  4. Format/Info                              : Advanced Video Codec
  5. Format profile                           : [email protected]
  6. Format settings                          : CABAC / 5 Ref Frames
  7. Format settings, CABAC                   : Yes
  8. Format settings, Reference frames        : 5 frames
  9. Codec ID                                 : V_MPEG4/ISO/AVC
  10. Duration                                 : 2 h 2 min
  11. Bit rate                                 : 6 517 kb/s
  12. Width                                    : 1 914 pixels
  13. Height                                   : 792 pixels
  14. Display aspect ratio                     : 2.40:1
  15. Frame rate mode                          : Constant
  16. Frame rate                               : 23.976 (24000/1001/189150) FPS
  17. Color space                              : YUV
  18. Chroma subsampling                       : 4:2:0
  19. Bit depth                                : 8 bits
  20. Scan type                                : Progressive
  21. Bits/(Pixel*Frame)                       : 0.179
  22. Stream size                              : 5.57 GiB (89%)
  23. Language                                 : English
  24. Default                                  : Yes
  25. Forced                                   : No
  26. Color range                              : Limited
  27. Color primaries                          : BT.709
  28. Transfer characteristics                 : BT.709
  29. Matrix coefficients                      : BT.709
  30. Audio
  31. ID                                       : 2
  32. Format                                   : E-AC-3 JOC
  33. Format/Info                              : Enhanced AC-3 with Joint Object Coding
  34. Commercial name                          : Dolby Digital Plus with Dolby Atmos
  35. Codec ID                                 : A_EAC3
  36. Duration                                 : 2 h 2 min
  37. Bit rate mode                            : Constant
  38. Bit rate                                 : 768 kb/s
  39. Channel(s)                               : 6 channels
  40. Channel layout                           : L R C LFE Ls Rs
  41. Sampling rate                            : 48.0 kHz
  42. Frame rate                               : 31.250 FPS (1536 SPF)
  43. Compression mode                         : Lossy
  44. Stream size                              : 672 MiB (11%)
  45. Language                                 : English
  46. Service kind                             : Complete Main
  47. Default                                  : Yes
  48. Forced                                   : No
  49. Complexity index                         : 16
  50. Number of dynamic objects                : 15
  51. Bed channel count                        : 1 channel
  52. Bed channel configuration                : LFE
  53. Text #1
  54. ID                                       : 3
  55. Format                                   : UTF-8
  56. Codec ID                                 : S_TEXT/UTF8
  57. Codec ID/Info                            : UTF-8 Plain Text
  58. Duration                                 : 42 min 25 s
  59. Bit rate                                 : 0 b/s
  60. Count of elements                        : 7
  61. Stream size                              : 170 Bytes (0%)
  62. Title                                    : FORCED
  63. Language                                 : English
  64. Default                                  : No
  65. Forced                                   : Yes
  66. Text #2
  67. ID                                       : 4
  68. Format                                   : UTF-8
  69. Codec ID                                 : S_TEXT/UTF8
  70. Codec ID/Info                            : UTF-8 Plain Text
  71. Duration                                 : 1 h 52 min
  72. Bit rate                                 : 60 b/s
  73. Count of elements                        : 1647
  74. Stream size                              : 49.6 KiB (0%)
  75. Language                                 : English
  76. Default                                  : Yes
  77. Forced                                   : No
  78. Text #3
  79. ID                                       : 5
  80. Format                                   : UTF-8
  81. Codec ID                                 : S_TEXT/UTF8
  82. Codec ID/Info                            : UTF-8 Plain Text
  83. Duration                                 : 1 h 52 min
  84. Bit rate                                 : 68 b/s
  85. Count of elements                        : 1983
  86. Stream size                              : 56.3 KiB (0%)
  87. Title                                    : SDH
  88. Language                                 : English
  89. Default                                  : No
  90. Forced                                   : No
  91. Text #4
  92. ID                                       : 6
  93. Format                                   : UTF-8
  94. Codec ID                                 : S_TEXT/UTF8
  95. Codec ID/Info                            : UTF-8 Plain Text
  96. Duration                                 : 2 h 1 min
  97. Bit rate                                 : 48 b/s
  98. Count of elements                        : 1384
  99. Stream size                              : 43.4 KiB (0%)
  100. Language                                 : Korean
  101. Default                                  : No
  102. Forced                                   : No
  103. Text #5
  104. ID                                       : 7
  105. Format                                   : UTF-8
  106. Codec ID                                 : S_TEXT/UTF8
  107. Codec ID/Info                            : UTF-8 Plain Text
  108. Duration                                 : 2 h 1 min
  109. Bit rate                                 : 47 b/s
  110. Count of elements                        : 1366
  111. Stream size                              : 42.0 KiB (0%)
  112. Title                                    : zh-Hant
  113. Language                                 : Chinese
  114. Default                                  : No
  115. Forced                                   : No
复制代码







                                       
                                       

                                       
                                       
                                       




回复

使用道具 举报

懒得打字嘛,点击右侧快捷回复 【右侧内容,后台自定义】
您需要登录后才可以回帖 登录 | 立即加入

本版积分规则

Archiver|小黑屋| 蓝光电影网 |网站地图

Copyright © 2021 Comsenz Inc. Powered by 蓝光电影网

蓝光电影网

本站内容由用户自主分享和转载自互联网,转载目的在于传递更多信息,并不代表本网赞同其观点和对其真实性负责。

如有侵权、违反国家法律政策行为,请联系我们,我们会第一时间及时清除和处理!

举报反馈邮箱:[email protected]

快速回复 返回顶部 返回列表