找回密码

查看: 2557|回复: 0

[10bit.HDR] 德鲁大叔[简英字幕].Uncle.Drew.2018.BluRay.2160p.x265.10bit.HDR.2Audio-MiniHD 14.72GB

[复制链接]
蓝光币
8
发表于 2022-5-21 18:08:06 | 显示全部楼层 |阅读模式
德鲁大叔[简英字幕].Uncle.Drew.2018.BluRay.2160p.x265.10bit.HDR.2Audio-MiniHD 14.72GB-1.jpg

◎译  名 德鲁大叔 / 街頭祖霸王(港)
◎片  名 Uncle Drew
◎年  代 2018
◎产  地 美国
◎类  别 笑剧 / 活动
◎语  言 英语
◎上映日期 2019-01-11(中国大陆) / 2018-06-29(美国)
◎IMDb链接 https://www.imdb.com/title/tt7334528/
◎豆瓣评分 6.3/10 (29898人评价)
◎豆瓣链接 https://movie.douban.com/subject/27074301/
◎片  长 103分钟
◎导  演 查尔斯·斯通三世 Charles Stone III
◎编  剧 杰·朗吉诺 Jay Longino
◎演  员 凯里·欧文 Kyrie Irving
       里尔·莱尔·哈瓦瑞 Lil Rel Howery
       沙奎尔·奥尼尔 Shaquille O'Neal
       克里斯·韦伯 Chris Webber
       雷吉·米勒 Reggie Miller
       内特·罗宾逊 Nate Robinson
       丽萨·莱斯利 Lisa Leslie
       埃丽卡·阿什 Erica Ash
       蒂凡尼·哈迪斯 Tiffany Haddish
       尼克·克罗尔 Nick Kroll
       迈克·艾普斯 Mike Epps
       J·B·斯穆夫 J.B. Smoove
       亚当·拉扎尔-怀特 Adam Lazarre-White
       比尔·沃尔顿 Bill Walton
       乔治·格文 George Gervin
       史蒂夫·纳什 Steve Nash
       迪肯贝·穆托姆博 Dikembe Mutombo
       宁宁·利克斯 NeNe Leakes
       特伦斯·罗斯摩尔 Terence Rosemore
       德韦恩·博伊德 Dwayne Boyd
       以利亚·埃弗雷特 Elijah Everett
       盖奇·劳森 Gage Lawson
       特伦斯·卡森 Terrence 'T.C.' Carson
       贾迈尔·钱伯斯 Jamel Chambers
       艾琳·布拉德利·丹格 Erin Bradley Dangar
       德梅特里·兰德尔 Demetri Landell
       肖恩·麦克米伦 Shaun McMillan
       帕蒂·舍尔哈斯 Patti Schellhaas
       本杰明·韦弗 Benjamin Weaver
       阿隆·戈登 Aaron Gordon
       厄尔·门罗 Earl Monroe
       乔希·亨利 Josh Henry
       萨尔·马塞克拉 Sal Masekela
       约翰·卡利帕里 John Calipari
       斯库普·杰克逊 Scoop Jackson
       克里斯托弗·伦内茨 Christopher Lennertz
       劳拉·丹德里奇 Laura Dandridge
◎简  介
  达克斯(里尔·莱尔·哈瓦瑞 饰)为了一圆自己的篮球梦,加入在洛克公园举行的陌头篮球锦标赛。在他输给对手穆奇后,自己的运势不竭地走下坡路,直到达克斯碰见了前陌头霸主——德鲁大叔(凯里·欧文 饰),希望获得他的助力,而德鲁大叔提出建立自己的球队。                                    
                                为此,两人配合动身去寻觅德鲁大叔的老队员们(沙奎尔·奥尼尔、克里斯·韦伯、雷吉·米勒、内特·罗宾逊),以后一场场出色绝伦的角逐不竭上演,也发生了一系列兴趣横生的故事。
  1. ##### MediaInfo ######
  2. General
  3. Unique ID                                : 116604288838922057516230986403193780197 (0x57B92B4D89B9B737AB60F1AA2F7F77E5)
  4. Complete name                            : Uncle.Drew.2018.BluRay.2160p.x265.10bit.HDR.2Audio-MiniHD.mkv
  5. Format                                   : Matroska
  6. Format version                           : Version 4
  7. File size                                : 14.7 GiB
  8. Duration                                 : 1 h 43 min
  9. Overall bit rate mode                    : Variable
  10. Overall bit rate                         : 20.4 Mb/s
  11. Encoded date                             : UTC 2018-10-10 15:17:23
  12. Writing application                      : mkvmerge v20.0.0 ('I Am The Sun') 64-bit
  13. Writing library                          : libebml v1.3.5 + libmatroska v1.4.8
  14. Video
  15. ID                                       : 1
  16. Format                                   : HEVC
  17. Format/Info                              : High Efficiency Video Coding
  18. Format profile                           : Main [email]10@L5.1[/email]@High
  19. HDR format                               : SMPTE ST 2086, HDR10 compatible
  20. Codec ID                                 : V_MPEGH/ISO/HEVC
  21. Duration                                 : 1 h 43 min
  22. Bit rate                                 : 15.2 Mb/s
  23. Width                                    : 3 840 pixels
  24. Height                                   : 2 076 pixels
  25. Display aspect ratio                     : 1.85:1
  26. Frame rate mode                          : Constant
  27. Frame rate                               : 23.976 (24000/1001/53875) FPS
  28. Color space                              : YUV
  29. Chroma subsampling                       : 4:2:0
  30. Bit depth                                : 10 bits
  31. Bits/(Pixel*Frame)                       : 0.080
  32. Stream size                              : 11.0 GiB (75%)
  33. Writing library                          : x265 2.8+4-g0ad419482+18:[Windows][GCC 7.1.0][64 bit] Yuuki 10bit
  34. Encoding settings                        : rc=crf / crf=18.0000 / qcomp=0.70 / qpstep=4 / vbv-maxrate=160000 / vbv-bufsize=160000 / vbv-init=0.9 / crf-max=0.0 / crf-min=0.0 / aq-mode=1 / aq-strength=0.90 / cbqpoffs=-3 / crqpoffs=-3 / ipratio=1.40 / pbratio=1.20 / psy-rd=2.00 / psy-rdoq=5.00 / deblock=-1:-1 / ref=5 / bframes=9 / b-adapt=2 / bframe-bias=0 / b-pyramid / b-intra / weightp / weightb / min-keyint=23 / max-keyint=300 / rc-lookahead=40 / gop-lookahead=0 / NTM4NzU=uuDQuD2mJt9fsCf / scenecut=40 / radl=0 / max-cu-size=32 / min-cu-size=8 / me=3 / subme=4 / merange=25 / rdoq-level=2 / rd=4 / rdpenalty=1 / ----- / cutree / no-sao / no-rect / no-amp / no-open-gop / wpp / no-pmode / no-pme / no-psnr / no-ssim / nr-intra=0 / nr-inter=0 / no-constrained-intra / no-strong-intra-smoothing / max-tu-size=32 / tu-inter-depth=2 / tu-intra-depth=2 / limit-tu=4 / qg-size=32 / qpmax=69 / qpmin=0 / ----- / cpuid=538751111039 / frame-threads=6 / numa-pools=84,- / log-level=2 / input-csp=1 / input-res=3840x2076 / interlace=0 / level-idc=0 / high-tier=1 / uhd-bd=0 / no-allow-non-conformance / no-repeat-headers / no-aud / hrd / info / hash=0 / no-temporal-layers / lookahead-slices=4 / no-intra-refresh / dynamic-rd=0.00 / no-ssim-rd / signhide / no-tskip / max-merge=3 / limit-refs=2 / limit-modes / temporal-mvp / no-analyze-src-pics / no-sao-non-deblock / no-early-skip / no-rskip / no-fast-intra / no-tskip-fast / no-cu-lossless / no-splitrd-skip / no-rd-refine / no-lossless / zone-count=0 / no-strict-cbr / no-rc-grain / no-const-vbv / sar=0 / overscan=0 / videoformat=5 / range=0 / colorprim=9 / transfer=16 / colormatrix=9 / chromaloc=0 / display-window=0 / master-display=G(13250,34500)B(7500,3000)R(34000,16000)WP(15635,16450)L(10000000,1) / max-cll=823,709 / min-luma=0 / max-luma=1023 / log2-max-poc-lsb=8 / vui-timing-info / vui-hrd-info / slices=1 / no-opt-qp-pps / no-opt-ref-list-length-pps / no-multi-pass-opt-rps / scenecut-bias=0.05 / no-opt-cu-delta-qp / no-aq-motion / hdr / hdr-opt / no-dhdr10-opt / no-idr-recovery-sei / analysis-reuse-level=5 / scale-factor=0 / refine-intra=0 / refine-inter=0 / refine-mv=0 / no-limit-sao / ctu-info=0 / no-lowpass-dct / refine-mv-type=0 / copy-pic=1 / max-ausize-factor=1.0 / no-dynamic-refine / no-single-sei
  35. Default                                  : Yes
  36. Forced                                   : No
  37. Color range                              : Limited
  38. Color primaries                          : BT.2020
  39. Transfer characteristics                 : PQ
  40. Matrix coefficients                      : BT.2020 non-constant
  41. Mastering display color primaries        : Display P3
  42. Mastering display luminance              : min: 0.0001 cd/m2, max: 1000 cd/m2
  43. Maximum Content Light Level              : 823 cd/m2
  44. Maximum Frame-Average Light Level        : 709 cd/m2
  45. Audio #1
  46. ID                                       : 2
  47. Format                                   : MLP FBA 16-ch
  48. Format/Info                              : Meridian Lossless Packing FBA with 16-channel presentation
  49. Commercial name                          : Dolby TrueHD with Dolby Atmos
  50. Codec ID                                 : A_TRUEHD
  51. Duration                                 : 1 h 43 min
  52. Bit rate mode                            : Variable
  53. Bit rate                                 : 4 343 kb/s
  54. Maximum bit rate                         : 7 086 kb/s
  55. Channel(s)                               : 8 channels
  56. Channel layout                           : L R C LFE Ls Rs Lb Rb
  57. Sampling rate                            : 48.0 kHz
  58. Frame rate                               : 1 200.000 FPS (40 SPF)
  59. Compression mode                         : Lossless
  60. Delay relative to video                  : 9 ms
  61. Stream size                              : 3.13 GiB (21%)
  62. Title                                    : 英语全景声
  63. Language                                 : English
  64. Default                                  : Yes
  65. Forced                                   : No
  66. Number of dynamic objects                : 11
  67. Bed channel count                        : 1 channel
  68. Bed channel configuration                : LFE
  69. Audio #2
  70. ID                                       : 3
  71. Format                                   : AC-3
  72. Format/Info                              : Audio Coding 3
  73. Commercial name                          : Dolby Digital
  74. Codec ID                                 : A_AC3
  75. Duration                                 : 1 h 43 min
  76. Bit rate mode                            : Constant
  77. Bit rate                                 : 640 kb/s
  78. Channel(s)                               : 6 channels
  79. Channel layout                           : L R C LFE Ls Rs
  80. Sampling rate                            : 48.0 kHz
  81. Frame rate                               : 31.250 FPS (1536 SPF)
  82. Compression mode                         : Lossy
  83. Stream size                              : 473 MiB (3%)
  84. Title                                    : 英语AC-3
  85. Language                                 : English
  86. Service kind                             : Complete Main
  87. Default                                  : No
  88. Forced                                   : No
  89. Text #1
  90. ID                                       : 4
  91. Format                                   : PGS
  92. Muxing mode                              : zlib
  93. Codec ID                                 : S_HDMV/PGS
  94. Codec ID/Info                            : Picture based subtitle format used on BDs/HD-DVDs
  95. Duration                                 : 1 h 39 min
  96. Bit rate                                 : 49.5 kb/s
  97. Count of elements                        : 2716
  98. Stream size                              : 35.1 MiB (0%)
  99. Title                                    : 简体中文
  100. Language                                 : Chinese
  101. Default                                  : Yes
  102. Forced                                   : No
  103. Text #2
  104. ID                                       : 5
  105. Format                                   : PGS
  106. Muxing mode                              : zlib
  107. Codec ID                                 : S_HDMV/PGS
  108. Codec ID/Info                            : Picture based subtitle format used on BDs/HD-DVDs
  109. Duration                                 : 1 h 39 min
  110. Bit rate                                 : 112 kb/s
  111. Count of elements                        : 2765
  112. Stream size                              : 79.8 MiB (1%)
  113. Title                                    : 简英双语
  114. Language                                 : Chinese
  115. Default                                  : No
  116. Forced                                   : No
  117. Text #3
  118. ID                                       : 6
  119. Format                                   : PGS
  120. Muxing mode                              : zlib
  121. Codec ID                                 : S_HDMV/PGS
  122. Codec ID/Info                            : Picture based subtitle format used on BDs/HD-DVDs
  123. Duration                                 : 1 h 38 min
  124. Bit rate                                 : 66.4 kb/s
  125. Count of elements                        : 3798
  126. Stream size                              : 46.9 MiB (0%)
  127. Title                                    : 英文
  128. Language                                 : English
  129. Default                                  : No
  130. Forced                                   : No
  131. Menu
  132. 00:00:00.000                             : en:Chapter 01
  133. 00:07:53.166                             : en:Chapter 02
  134. 00:16:03.375                             : en:Chapter 03
  135. 00:23:48.958                             : en:Chapter 04
  136. 00:33:13.833                             : en:Chapter 05
  137. 00:41:19.875                             : en:Chapter 06
  138. 00:48:25.041                             : en:Chapter 07
  139. 00:56:07.625                             : en:Chapter 08
  140. 01:03:39.708                             : en:Chapter 09
  141. 01:11:51.208                             : en:Chapter 10
  142. 01:22:14.916                             : en:Chapter 11
  143. 01:32:59.833                             : en:Chapter 12
复制代码


德鲁大叔[简英字幕].Uncle.Drew.2018.BluRay.2160p.x265.10bit.HDR.2Audio-MiniHD 14.72GB-2.jpeg
德鲁大叔[简英字幕].Uncle.Drew.2018.BluRay.2160p.x265.10bit.HDR.2Audio-MiniHD 14.72GB-3.jpeg
德鲁大叔[简英字幕].Uncle.Drew.2018.BluRay.2160p.x265.10bit.HDR.2Audio-MiniHD 14.72GB-4.jpeg
德鲁大叔[简英字幕].Uncle.Drew.2018.BluRay.2160p.x265.10bit.HDR.2Audio-MiniHD 14.72GB-5.jpeg
德鲁大叔[简英字幕].Uncle.Drew.2018.BluRay.2160p.x265.10bit.HDR.2Audio-MiniHD 14.72GB-6.jpeg
德鲁大叔[简英字幕].Uncle.Drew.2018.BluRay.2160p.x265.10bit.HDR.2Audio-MiniHD 14.72GB-7.jpeg










回复

使用道具 举报

懒得打字嘛,点击右侧快捷回复 【右侧内容,后台自定义】
您需要登录后才可以回帖 登录 | 立即加入

本版积分规则

Archiver| |网站地图

Copyright © 2024 Comsenz Inc. Powered by 蓝光电影网

本站内容由用户自主分享和转载自互联网,转载目的在于传递更多信息,并不代表本网赞同其观点和对其真实性负责。

如有侵权、违反国家法律政策行为,请联系我们,我们会第一时间及时清除和处理!

举报反馈邮箱:4k1080.com@gmail.com

快速回复 返回顶部 返回列表