找回密码

蓝光电影网

查看: 259|回复: 5

[10bit.HDR] 新蝙蝠侠[国英多音轨/简繁英字幕].The.Batman.2022.UHD.BluRay.2160p.2Audio.TrueHD.Atmos.7.1.x265.10bit.HDR-ALT 18.23GB

[复制链接]
蓝光币
5
发表于 2022-5-22 01:52:48 | 显示全部楼层 |阅读模式


◎译  名 新蝙蝠侠 / 蝙蝠侠(港 / 台) / 重启版蝙蝠侠
◎片  名 The Batman
◎年  代 2022
◎产  地 美国
◎类  别 剧情 / 行动 / 悬疑 / 犯罪
◎语  言 英语
◎上映日期 2022-03-18(中国大陆) / 2022-03-01(韩国) / 2022-03-04(美国) / 2022-04-19(美国收集)
◎IMDb链接 https://www.imdb.com/title/tt1877830/
◎豆瓣评分 7.3/10 (230173人评价)
◎豆瓣链接 https://movie.douban.com/subject/6424756/
◎片  长 176分钟
◎导  演 马特·里夫斯 Matt Reeves
◎编  剧 马特·里夫斯 Matt Reeves
       彼得·克莱格 Peter Craig
       比尔·芬格 Bill Finger
       鲍勃·凯恩 Bob Kane
       马特森·汤姆林 Mattson Tomlin
◎演  员 罗伯特·帕丁森 Robert Pattinson
       佐伊·克罗维兹 Zo? Kravitz
       保罗·达诺 Paul Dano
       科林·法瑞尔 Colin Farrell
       杰弗里·怀特 Jeffrey Wright
       安迪·瑟金斯 Andy Serkis
       约翰·特托罗 John Turturro
       彼得·萨斯加德 Peter Sarsgaard
       巴里·基奥恩 Barry Keoghan
       杰米·劳森 Jayme Lawson
       吉尔·佩雷斯-亚伯拉罕 Gil Perez-Abraham
       彼得·麦克唐纳德 Peter McDonald
       康·奥尼尔 Con O'Neill
       亚历克斯·费恩斯 Alex Ferns
       鲁伯特·彭利-琼斯 Rupert Penry-Jones
       科莎·恩格勒 Kosha Engler
       杰宁·哈瑞妮 Janine Harouni
       卢克·罗伯茨 Luke Roberts
       斯特拉·斯托克尔 Stella Stocker
       桑德拉·迪金森 Sandra Dickinson
       杰克·班尼特 Jack Bennett
       约瑟夫·巴德拉玛 Joseph Balderrama
       詹姆斯·伊莱斯 James Eeles
       小利莫尔·马雷特 Leemore Marrett Jr.
       斯图尔特·亚历山大 Stewart Alexander
       马库斯·奥尼卢德 Marcus Onilude
       埃琳娜·沙雷 Elena Saurel
       托德·博伊斯 Todd Boyce
       道格拉斯·罗素 Douglas Russell
       查尔斯·卡维尔 Charles Carver
       马克斯·卡维尔 Max Carver
       马克·基林 Mark Killeen
       洛娜·布朗 Lorna Brown
       埃利奥特·沃伦 Elliot Warren
       小田部阿基 Akie Kotabe
       布隆森·韦伯 Bronson Webb
       阿瑟·李 Arthur Lee
       派瑞 格拉斯普 Parry Glasspool
       娜塔丽·阿明 Nathalie Armin
       何塞?帕尔马 Jose Palma
       玛吉·巴基尔 Maggie Bakir
       露丝·霍洛克斯 Ruth Horrocks
       贝恩·科拉科 Bern Colla?o
       丹尼尔·厄根 Daniel Eghan
       雷切尔·汉德肖 Rachel Handshaw
       爵克·哈迪 Juke Hardy
       奥斯卡·诺瓦克 Oscar Novak
       吉米·斯达 Jimmy Star
       妮可拉·吉恩·马祖尔 Nichola Jean Mazur
       杰伊·利库戈 Jay Lycurgo
       马特·里夫斯 Matt Reeves
       迪伦·克拉克 Dylan Clark
       马切尔·E·尤斯兰 Michael E. Uslan
       迈克·吉亚奇诺 Michael Giacchino
       格雷格·弗莱瑟 Greig Fraser
       泰勒·纳尔逊 Tyler Nelson
       辛迪·托兰 Cindy Tolan
       詹姆斯·钦伦德 James Chinlund
       大卫·克罗斯曼 David Crossman
       杰奎琳·杜兰 Jacqueline Durran
       格林·狄龙 Glyn Dillon
       丹·赖蒙 Dan Lemmon
◎简  介
  布鲁斯·韦恩(罗伯特·帕丁森 饰)化身蝙蝠侠于哥谭市行侠仗义两年后,罪犯皆闻风丧胆,他也是以深入打仗到哥谭市的阴晦面。他潜行于哥谭市败北的政要名流关系网中,身旁唯一的几个值得相信的盟友——管家阿尔弗雷德·潘尼沃斯(安迪·瑟金斯 饰)与詹姆斯·戈登警长(杰弗里·怀特 饰)。这位独行的“义警侠探”在哥谭市民心中已成为“复仇”二字最见义勇为的代名词。
  1. ##### MediaInfo ######
  2. General
  3. Unique ID                                : 203627660098180970304297606911333165741 (0x993142C45E910BE7DC5E5E7E0DB6EAAD)
  4. Complete name                            : The.Batman.2022.BluRay.1080p.2Audio.TrueHD.Atmos.7.1.x265.10bit-ALT.mkv
  5. Format                                   : Matroska
  6. Format version                           : Version 4
  7. File size                                : 8.36 GiB
  8. Duration                                 : 2 h 56 min
  9. Overall bit rate mode                    : Variable
  10. Overall bit rate                         : 6 790 kb/s
  11. Encoded date                             : UTC 2022-05-16 01:54:33
  12. Writing application                      : mkvmerge v49.0.0 ('Sick Of Losing Soulmates') 64-bit
  13. Writing library                          : libebml v1.4.0 + libmatroska v1.6.1
  14. Video
  15. ID                                       : 1
  16. Format                                   : HEVC
  17. Format/Info                              : High Efficiency Video Coding
  18. Format profile                           : Main [email][email protected][/email]@High
  19. Codec ID                                 : V_MPEGH/ISO/HEVC
  20. Duration                                 : 2 h 56 min
  21. Bit rate                                 : 2 618 kb/s
  22. Width                                    : 1 920 pixels
  23. Height                                   : 804 pixels
  24. Display aspect ratio                     : 2.40:1
  25. Frame rate mode                          : Constant
  26. Frame rate                               : 23.976 (24000/1001/53875) FPS
  27. Color space                              : YUV
  28. Chroma subsampling                       : 4:2:0
  29. Bit depth                                : 10 bits
  30. Bits/(Pixel*Frame)                       : 0.071
  31. Stream size                              : 3.22 GiB (39%)
  32. Title                                    : HEVC, [email][email protected][/email]@High, 24/1.001 fps @ 2618 kbps
  33. Writing library                          : x265 3.5+36-1f2c8da77:[Windows][GCC 11.2.0][64 bit] 10bit
  34. Encoding settings                        : cpuid=538751111039 / frame-threads=4 / numa-pools=20 / wpp / no-pmode / no-pme / no-psnr / no-ssim / log-level=2 / input-csp=1 / input-res=1920x804 / interlace=0 / total-frames=253464 / level-idc=51 / high-tier=1 / uhd-bd=0 / ref=5 / no-allow-non-conformance / no-repeat-headers / annexb / no-aud / no-eob / no-eos / no-hrd / info / hash=0 / no-temporal-layers / open-gop / min-keyint=24 / keyint=240 / gop-lookahead=0 / bframes=6 / b-adapt=2 / b-pyramid / bframe-bias=0 / rc-lookahead=40 / lookahead-slices=0 / NTM4NzU=uuDQuD2mJt9fsCf / scenecut=40 / no-hist-scenecut / radl=0 / no-splice / no-intra-refresh / ctu=32 / min-cu-size=8 / no-rect / no-amp / max-tu-size=32 / tu-inter-depth=3 / tu-intra-depth=3 / limit-tu=4 / rdoq-level=2 / dynamic-rd=0.00 / no-ssim-rd / signhide / no-tskip / nr-intra=0 / nr-inter=0 / no-constrained-intra / no-strong-intra-smoothing / max-merge=4 / limit-refs=1 / limit-modes / me=3 / subme=4 / merange=25 / temporal-mvp / no-frame-dup / no-hme / weightp / weightb / no-analyze-src-pics / deblock=-3:-3 / no-sao / no-sao-non-deblock / rd=6 / selective-sao=0 / no-early-skip / rskip / no-fast-intra / no-tskip-fast / no-cu-lossless / b-intra / no-splitrd-skip / rdpenalty=0 / psy-rd=2.00 / psy-rdoq=1.00 / no-rd-refine / no-lossless / cbqpoffs=-2 / crqpoffs=-2 / rc=crf / crf=17.0 / qcomp=0.65 / qpstep=4 / stats-write=0 / stats-read=0 / vbv-maxrate=80000 / vbv-bufsize=80000 / vbv-init=0.9 / min-vbv-fullness=50.0 / max-vbv-fullness=80.0 / crf-max=0.0 / crf-min=0.0 / ipratio=1.40 / pbratio=1.30 / aq-mode=2 / aq-strength=0.85 / cutree / zone-count=0 / no-strict-cbr / qg-size=32 / no-rc-grain / qpmax=69 / qpmin=0 / no-const-vbv / sar=1 / overscan=0 / videoformat=5 / range=0 / colorprim=1 / transfer=1 / colormatrix=1 / chromaloc=0 / display-window=0 / cll=0,0 / min-luma=0 / max-luma=1023 / log2-max-poc-lsb=8 / vui-timing-info / vui-hrd-info / slices=1 / no-opt-qp-pps / no-opt-ref-list-length-pps / no-multi-pass-opt-rps / scenecut-bias=0.05 / hist-threshold=0.03 / no-opt-cu-delta-qp / no-aq-motion / no-hdr10 / no-hdr10-opt / no-dhdr10-opt / no-idr-recovery-sei / analysis-reuse-level=0 / analysis-save-reuse-level=0 / analysis-load-reuse-level=0 / scale-factor=0 / refine-intra=0 / refine-inter=0 / refine-mv=1 / refine-ctu-distortion=0 / no-limit-sao / ctu-info=0 / no-lowpass-dct / refine-analysis-type=0 / copy-pic=1 / max-ausize-factor=1.0 / no-dynamic-refine / no-single-sei / no-hevc-aq / no-svt / no-field / qp-adaptation-range=1.00 / scenecut-aware-qp=0conformance-window-offsets / right=0 / bottom=0 / NTM4NzU= / decoder-max-rate=0 / no-vbv-live-multi-pass
  35. Language                                 : English
  36. Default                                  : Yes
  37. Forced                                   : No
  38. Color range                              : Limited
  39. Color primaries                          : BT.709
  40. Transfer characteristics                 : BT.709
  41. Matrix coefficients                      : BT.709
  42. Audio #1
  43. ID                                       : 2
  44. Format                                   : MLP FBA 16-ch
  45. Format/Info                              : Meridian Lossless Packing FBA with 16-channel presentation
  46. Commercial name                          : Dolby TrueHD with Dolby Atmos
  47. Codec ID                                 : A_TRUEHD
  48. Duration                                 : 2 h 56 min
  49. Bit rate mode                            : Variable
  50. Bit rate                                 : 3 028 kb/s
  51. Maximum bit rate                         : 5 271 kb/s
  52. Channel(s)                               : 8 channels
  53. Channel layout                           : L R C LFE Ls Rs Lb Rb
  54. Sampling rate                            : 48.0 kHz
  55. Frame rate                               : 1 200.000 FPS (40 SPF)
  56. Compression mode                         : Lossless
  57. Stream size                              : 3.73 GiB (45%)
  58. Title                                    : English Dolby TrueHD 7.1 (Atmos) @ 3476 kbps
  59. Language                                 : English
  60. Default                                  : Yes
  61. Forced                                   : No
  62. Number of dynamic objects                : 11
  63. Bed channel count                        : 1 channel
  64. Bed channel configuration                : LFE
  65. Audio #2
  66. ID                                       : 3
  67. Format                                   : AC-3
  68. Format/Info                              : Audio Coding 3
  69. Commercial name                          : Dolby Digital
  70. Codec ID                                 : A_AC3
  71. Duration                                 : 2 h 56 min
  72. Bit rate mode                            : Constant
  73. Bit rate                                 : 448 kb/s
  74. Channel(s)                               : 6 channels
  75. Channel layout                           : L R C LFE Ls Rs
  76. Sampling rate                            : 48.0 kHz
  77. Frame rate                               : 31.250 FPS (1536 SPF)
  78. Compression mode                         : Lossy
  79. Stream size                              : 565 MiB (7%)
  80. Title                                    : English Dolby Digital Audio 5.1 @ 640 kbps
  81. Language                                 : English
  82. Service kind                             : Complete Main
  83. Default                                  : No
  84. Forced                                   : No
  85. Audio #3
  86. ID                                       : 4
  87. Format                                   : AC-3
  88. Format/Info                              : Audio Coding 3
  89. Commercial name                          : Dolby Digital
  90. Codec ID                                 : A_AC3
  91. Duration                                 : 2 h 56 min
  92. Bit rate mode                            : Constant
  93. Bit rate                                 : 384 kb/s
  94. Channel(s)                               : 6 channels
  95. Channel layout                           : L R C LFE Ls Rs
  96. Sampling rate                            : 48.0 kHz
  97. Frame rate                               : 31.250 FPS (1536 SPF)
  98. Compression mode                         : Lossy
  99. Stream size                              : 484 MiB (6%)
  100. Title                                    : Mandarin Dolby Digital Audio 5.1 @ 384 kbps
  101. Language                                 : Chinese
  102. Service kind                             : Complete Main
  103. Default                                  : No
  104. Forced                                   : No
  105. Text #1
  106. ID                                       : 5
  107. Format                                   : PGS
  108. Codec ID                                 : S_HDMV/PGS
  109. Codec ID/Info                            : Picture based subtitle format used on BDs/HD-DVDs
  110. Duration                                 : 2 h 55 min
  111. Bit rate                                 : 34.3 kb/s
  112. Count of elements                        : 4834
  113. Stream size                              : 43.1 MiB (1%)
  114. Title                                    : Eng/SUP
  115. Language                                 : English
  116. Default                                  : No
  117. Forced                                   : No
  118. Text #2
  119. ID                                       : 6
  120. Format                                   : PGS
  121. Codec ID                                 : S_HDMV/PGS
  122. Codec ID/Info                            : Picture based subtitle format used on BDs/HD-DVDs
  123. Duration                                 : 2 h 54 min
  124. Bit rate                                 : 25.1 kb/s
  125. Count of elements                        : 3624
  126. Stream size                              : 31.3 MiB (0%)
  127. Title                                    : Cht/SUP  原盘繁体
  128. Language                                 : Chinese
  129. Default                                  : No
  130. Forced                                   : No
  131. Text #3
  132. ID                                       : 7
  133. Format                                   : PGS
  134. Codec ID                                 : S_HDMV/PGS
  135. Codec ID/Info                            : Picture based subtitle format used on BDs/HD-DVDs
  136. Duration                                 : 2 h 55 min
  137. Bit rate                                 : 25.3 kb/s
  138. Count of elements                        : 3870
  139. Stream size                              : 31.9 MiB (0%)
  140. Title                                    : Cht/SUP  原盘繁体
  141. Language                                 : Chinese
  142. Default                                  : No
  143. Forced                                   : No
  144. Text #4
  145. ID                                       : 8
  146. Format                                   : PGS
  147. Codec ID                                 : S_HDMV/PGS
  148. Codec ID/Info                            : Picture based subtitle format used on BDs/HD-DVDs
  149. Duration                                 : 2 h 55 min
  150. Bit rate                                 : 31.8 kb/s
  151. Count of elements                        : 3972
  152. Stream size                              : 40.1 MiB (0%)
  153. Title                                    : Chs/SUP  简体
  154. Language                                 : Chinese
  155. Default                                  : Yes
  156. Forced                                   : No
  157. Text #5
  158. ID                                       : 9
  159. Format                                   : PGS
  160. Codec ID                                 : S_HDMV/PGS
  161. Codec ID/Info                            : Picture based subtitle format used on BDs/HD-DVDs
  162. Duration                                 : 2 h 55 min
  163. Bit rate                                 : 33.1 kb/s
  164. Count of elements                        : 3972
  165. Stream size                              : 41.7 MiB (0%)
  166. Title                                    : Cht/SUP  繁体
  167. Language                                 : Chinese
  168. Default                                  : No
  169. Forced                                   : No
  170. Text #6
  171. ID                                       : 10
  172. Format                                   : PGS
  173. Codec ID                                 : S_HDMV/PGS
  174. Codec ID/Info                            : Picture based subtitle format used on BDs/HD-DVDs
  175. Duration                                 : 2 h 55 min
  176. Bit rate                                 : 46.4 kb/s
  177. Count of elements                        : 3972
  178. Stream size                              : 58.4 MiB (1%)
  179. Title                                    : Chs/SUP  简英双语
  180. Language                                 : Chinese
  181. Default                                  : No
  182. Forced                                   : No
  183. Text #7
  184. ID                                       : 11
  185. Format                                   : PGS
  186. Codec ID                                 : S_HDMV/PGS
  187. Codec ID/Info                            : Picture based subtitle format used on BDs/HD-DVDs
  188. Duration                                 : 2 h 55 min
  189. Bit rate                                 : 47.0 kb/s
  190. Count of elements                        : 3972
  191. Stream size                              : 59.2 MiB (1%)
  192. Title                                    : Cht/SUP  繁英双语
  193. Language                                 : Chinese
  194. Default                                  : No
  195. Forced                                   : No
  196. Menu
  197. 00:00:00.000                             : en:第 01 章
  198. 00:12:01.384                             : en:第 02 章
  199. 00:23:21.650                             : en:第 03 章
  200. 00:31:53.826                             : en:第 04 章
  201. 00:41:44.501                             : en:第 05 章
  202. 00:51:36.675                             : en:第 06 章
  203. 01:00:12.900                             : en:第 07 章
  204. 01:10:32.394                             : en:第 08 章
  205. 01:18:35.127                             : en:第 09 章
  206. 01:29:14.724                             : en:第 10 章
  207. 01:42:33.145                             : en:第 11 章
  208. 01:52:16.895                             : en:第 12 章
  209. 01:58:21.219                             : en:第 13 章
  210. 02:09:39.979                             : en:第 14 章
  211. 02:21:14.466                             : en:第 15 章
  212. 02:27:31.342                             : en:第 16 章
  213. 02:38:36.004                             : en:第 17 章
  214. 02:46:58.341                             : en:第 18 章
复制代码



















回复

使用道具 举报

蓝光币
40
发表于 2022-5-22 16:12:55 | 显示全部楼层
可以,不错,下来看看哈!
回复 支持 反对

使用道具 举报

蓝光币
1
发表于 2022-5-22 16:23:58 | 显示全部楼层
6666666666666
回复 支持 反对

使用道具 举报

蓝光币
0
发表于 2022-5-22 19:42:10 | 显示全部楼层
3423424324234
回复 支持 反对

使用道具 举报

蓝光币
181
发表于 2022-5-23 15:19:18 | 显示全部楼层
楼主发贴辛苦了,谢谢楼主分享!我觉得蓝光电影网是注册对了!
回复 支持 反对

使用道具 举报

蓝光币
73
发表于 2022-5-23 21:24:46 | 显示全部楼层
感谢分享
回复

使用道具 举报

懒得打字嘛,点击右侧快捷回复 【右侧内容,后台自定义】
您需要登录后才可以回帖 登录 | 立即加入

本版积分规则

Archiver|小黑屋| 蓝光电影网 |网站地图

Copyright © 2021 Comsenz Inc. Powered by 蓝光电影网

蓝光电影网

本站内容由用户自主分享和转载自互联网,转载目的在于传递更多信息,并不代表本网赞同其观点和对其真实性负责。

如有侵权、违反国家法律政策行为,请联系我们,我们会第一时间及时清除和处理!

举报反馈邮箱:[email protected]

快速回复 返回顶部 返回列表