找回密码

蓝光电影网

查看: 240|回复: 4

[10bit.HDR] 比佛利山超级警探2[国英多音轨/简繁英字幕].Beverly.Hills.Cop.II.1987.2160p.HDR.UHD.BluRay.DTS-HD.MA.5.1.2Audio.x265-10bit-ENTHD 15.50GB

[复制链接]
蓝光币
5
发表于 2022-5-22 14:53:51 | 显示全部楼层 |阅读模式
比佛利山超级警探2[国英多音轨/简繁英字幕].Beverly.Hills.Cop.II.1987.2160p.HDR.UHD.BluRay.DTS-HD.MA.5.1.2Audio.x265-10bit-ENTHD 15.50GB-1.png

◎译  名 比佛利山超级警探2 / 轰天雷2 / 比佛利山警探2 / 妙探出更续集 / 妙探出差2 / 妙探出差续集 / 轰隆炮2
◎片  名 Beverly Hills Cop II
◎年  代 1987
◎产  地 美国
◎类  别 笑剧 / 行动 / 惊悚 / 犯罪
◎语  言 英语
◎上映日期 1987-05-20
◎IMDb链接 https://www.imdb.com/title/tt0092644/
◎豆瓣评分 6.7/10 (1311人评价)
◎豆瓣链接 https://movie.douban.com/subject/1301783/
◎片  长 100 分钟
◎导  演 托尼·斯科特 Tony Scott
◎编  剧 达尼洛·巴赫 Danilo Bach
       小丹尼尔·皮特里 Daniel Petrie Jr.
       艾迪·墨菲 Eddie Murphy
       拉里·弗格森 Larry Ferguson
       沃伦·斯卡伦 Warren Skaaren
       大卫·吉勒 David Giler
       Dennis Klein Dennis Klein
◎演  员 艾迪·墨菲 Eddie Murphy
       祖德·莱茵霍尔德 Judge Reinhold
       尤尔根·普洛斯诺 Jürgen Prochnow
       罗尼·考克斯 Ronny Cox
       约翰·阿什顿 John Ashton
       布里吉特·尼尔森 Brigitte Nielsen
       艾伦·加菲尔德 Allen Garfield
       迪恩·斯托克维尔 Dean Stockwell
       保罗·雷瑟 Paul Reiser
       保罗·吉尔福伊尔 Paul Guilfoyle
       罗伯特·雷吉祥 Robert Ridgely
       Brian O'Connor Brian O'Connor
       Glenn Withrow Glenn Withrow
       吉尔伯特·戈特弗雷德 Gilbert Gottfried
       汤姆·鲍尔 Tom Bower
       Valerie Wildman Valerie Wildman
       休·海夫纳 Hugh M. Hefner
       Carrie Leigh Carrie Leigh
       托德·苏斯曼 Todd Susman
       克里斯·洛克 Chris Rock
       Anthony D'Andrea Anthony D'Andrea
       罗伯特·帕斯托莱利 Robert Pastorelli
       Peggy McIntaggart Peggy McIntaggart
       汤米·利斯特 Tom Lister Jr.
       鲁迪·拉莫斯 Rudy Ramos
       Joe Duquette Joe Duquette
       Danny Nero Danny Nero
       欧拉·蕾 Ola Ray
       Alana Soares Alana Soares
       Venice Kong Venice Kong
       Luann Lee Luann Lee
       丽贝卡·费拉蒂 Rebecca Ferratti
       Kymberly Paige Kymberly Paige
       Kymberly Herrin Kymberly Herrin
       Kari Whitman Kari Whitman
       埃迪·多诺 Eddy Donno
       Sydney Urshan Sydney Urshan
       Teal Roberts Teal Roberts
       比利·韦伯 Billy Weber
       迈克尔·特罗尼克 Michael Tronick
       邦妮·蒂默曼 Bonnie Timmermann
       詹姆斯·J·默拉卡米 James J. Murakami
       约翰·H·安德森 John H. Anderson
       Stephen Abrums Stephen Abrums
       Dorothea Long Dorothea Long
◎简  介
  这是比佛利山超级警探的第二集。艾索(艾迪?墨菲 Eddie Murphy 饰)在上一集破案后老老实实地回到了底特律当他的刑警,回到底特律的他顿时感应百无聊赖。因而,艾索每周城市找他在洛山矶办案时结识的好朋友兼好同伴洛山矶警局的局长博格密尔(罗尼?考克斯 Ronny Cox 饰)出海钓鱼。                                    
                                可是这周博格密尔姑且取消了和艾索的钓鱼活动,事后艾索才得知本来博格密尔卷入了一单复杂危险的案件侦察中。博格密尔不幸在观察中被犯罪枪击受伤,现在正住在医院里。历来课本气、嫉恶如仇的艾索又怎能按耐得住,因而他顿时来到了洛山矶约上最好同伴比利(祖德?莱茵霍尔德 Judge Reinhold 饰),要一展身手为好友报仇。
◎获奖情况 (共1项)
  第60届奥斯卡金像奖 (1988)
  最好原创歌曲(提名)
  1. ##### MediaInfo ######
  2. General
  3. Unique ID                                : 78632629701155812008089170685713580556 (0x3B2817F722A976495BCAB44687F6020C)
  4. Complete name                            : Beverly.Hills.Cop.II.1987.2160p.HDR.UHD.BluRay.DTS-HD.MA.5.1.2Audio.x265-10bit-ENTHD.mkv
  5. Format                                   : Matroska
  6. Format version                           : Version 4
  7. File size                                : 15.5 GiB
  8. Duration                                 : 1 h 42 min
  9. Overall bit rate mode                    : Variable
  10. Overall bit rate                         : 21.5 Mb/s
  11. Movie name                               : Beverly Hills Cop II 1987 2160p HDR UHD BluRay DTS-HD MA 5.1 2Audio x265-10bit-HDS
  12. Encoded date                             : UTC 2022-05-20 10:34:05
  13. Writing application                      : mkvmerge v67.0.0 ('Under Stars') 64-bit
  14. Writing library                          : libebml v1.4.2 + libmatroska v1.6.4
  15. Video
  16. ID                                       : 1
  17. Format                                   : HEVC
  18. Format/Info                              : High Efficiency Video Coding
  19. Format profile                           : Main [email][email protected][/email]@High
  20. HDR format                               : SMPTE ST 2086, HDR10 compatible
  21. Codec ID                                 : V_MPEGH/ISO/HEVC
  22. Duration                                 : 1 h 42 min
  23. Bit rate                                 : 17.2 Mb/s
  24. Width                                    : 3 840 pixels
  25. Height                                   : 1 632 pixels
  26. Display aspect ratio                     : 2.35:1
  27. Frame rate mode                          : Constant
  28. Frame rate                               : 23.976 (24000/1001/53875) FPS
  29. Color space                              : YUV
  30. Chroma subsampling                       : 4:2:0
  31. Bit depth                                : 10 bits
  32. Bits/(Pixel*Frame)                       : 0.115
  33. Stream size                              : 12.4 GiB (80%)
  34. Title                                    : @HDSky
  35. Writing library                          : x265 - H.265/HEVC codec
  36. Default                                  : Yes
  37. Forced                                   : No
  38. Color range                              : Limited
  39. Color primaries                          : BT.2020
  40. Transfer characteristics                 : PQ
  41. Matrix coefficients                      : BT.2020 non-constant
  42. Mastering display color primaries        : Display P3
  43. Mastering display luminance              : min: 0.0010 cd/m2, max: 1000 cd/m2
  44. Audio #1
  45. ID                                       : 2
  46. Format                                   : DTS XLL
  47. Format/Info                              : Digital Theater Systems
  48. Commercial name                          : DTS-HD Master Audio
  49. Codec ID                                 : A_DTS
  50. Duration                                 : 1 h 42 min
  51. Bit rate mode                            : Variable
  52. Bit rate                                 : 3 919 kb/s
  53. Channel(s)                               : 6 channels
  54. Channel layout                           : C L R Ls Rs LFE
  55. Sampling rate                            : 48.0 kHz
  56. Frame rate                               : 93.750 FPS (512 SPF)
  57. Bit depth                                : 24 bits
  58. Compression mode                         : Lossless
  59. Stream size                              : 2.82 GiB (18%)
  60. Title                                    : English
  61. Language                                 : English
  62. Default                                  : Yes
  63. Forced                                   : No
  64. Audio #2
  65. ID                                       : 3
  66. Format                                   : AC-3
  67. Format/Info                              : Audio Coding 3
  68. Commercial name                          : Dolby Digital
  69. Codec ID                                 : A_AC3
  70. Duration                                 : 1 h 42 min
  71. Bit rate mode                            : Constant
  72. Bit rate                                 : 192 kb/s
  73. Channel(s)                               : 2 channels
  74. Channel layout                           : L R
  75. Sampling rate                            : 48.0 kHz
  76. Frame rate                               : 31.250 FPS (1536 SPF)
  77. Compression mode                         : Lossy
  78. Stream size                              : 141 MiB (1%)
  79. Title                                    : Mandarin
  80. Language                                 : Chinese
  81. Service kind                             : Complete Main
  82. Default                                  : Yes
  83. Forced                                   : No
  84. Text #1
  85. ID                                       : 4
  86. Format                                   : PGS
  87. Muxing mode                              : zlib
  88. Codec ID                                 : S_HDMV/PGS
  89. Codec ID/Info                            : Picture based subtitle format used on BDs/HD-DVDs
  90. Duration                                 : 1 h 37 min
  91. Bit rate                                 : 39.5 kb/s
  92. Count of elements                        : 2158
  93. Stream size                              : 27.7 MiB (0%)
  94. Title                                    : ENG
  95. Language                                 : English
  96. Default                                  : Yes
  97. Forced                                   : No
  98. Text #2
  99. ID                                       : 5
  100. Format                                   : PGS
  101. Muxing mode                              : zlib
  102. Codec ID                                 : S_HDMV/PGS
  103. Codec ID/Info                            : Picture based subtitle format used on BDs/HD-DVDs
  104. Duration                                 : 1 h 37 min
  105. Bit rate                                 : 32.9 kb/s
  106. Count of elements                        : 2492
  107. Stream size                              : 23.0 MiB (0%)
  108. Title                                    : CHS
  109. Language                                 : Chinese
  110. Default                                  : Yes
  111. Forced                                   : No
  112. Text #3
  113. ID                                       : 6
  114. Format                                   : PGS
  115. Muxing mode                              : zlib
  116. Codec ID                                 : S_HDMV/PGS
  117. Codec ID/Info                            : Picture based subtitle format used on BDs/HD-DVDs
  118. Duration                                 : 1 h 38 min
  119. Bit rate                                 : 36.9 kb/s
  120. Count of elements                        : 2818
  121. Stream size                              : 26.0 MiB (0%)
  122. Title                                    : CHS
  123. Language                                 : Chinese
  124. Default                                  : Yes
  125. Forced                                   : No
  126. Text #4
  127. ID                                       : 7
  128. Format                                   : PGS
  129. Muxing mode                              : zlib
  130. Codec ID                                 : S_HDMV/PGS
  131. Codec ID/Info                            : Picture based subtitle format used on BDs/HD-DVDs
  132. Duration                                 : 1 h 38 min
  133. Bit rate                                 : 38.2 kb/s
  134. Count of elements                        : 2818
  135. Stream size                              : 26.9 MiB (0%)
  136. Title                                    : CHT
  137. Language                                 : Chinese
  138. Default                                  : Yes
  139. Forced                                   : No
  140. Text #5
  141. ID                                       : 8
  142. Format                                   : PGS
  143. Muxing mode                              : zlib
  144. Codec ID                                 : S_HDMV/PGS
  145. Codec ID/Info                            : Picture based subtitle format used on BDs/HD-DVDs
  146. Duration                                 : 1 h 38 min
  147. Bit rate                                 : 38.1 kb/s
  148. Count of elements                        : 2530
  149. Stream size                              : 26.8 MiB (0%)
  150. Title                                    : CHS
  151. Language                                 : Chinese
  152. Default                                  : Yes
  153. Forced                                   : No
  154. Text #6
  155. ID                                       : 9
  156. Format                                   : PGS
  157. Muxing mode                              : zlib
  158. Codec ID                                 : S_HDMV/PGS
  159. Codec ID/Info                            : Picture based subtitle format used on BDs/HD-DVDs
  160. Duration                                 : 1 h 38 min
  161. Bit rate                                 : 39.0 kb/s
  162. Count of elements                        : 2530
  163. Stream size                              : 27.5 MiB (0%)
  164. Title                                    : CHT
  165. Language                                 : Chinese
  166. Default                                  : Yes
  167. Forced                                   : No
  168. Text #7
  169. ID                                       : 10
  170. Format                                   : PGS
  171. Muxing mode                              : zlib
  172. Codec ID                                 : S_HDMV/PGS
  173. Codec ID/Info                            : Picture based subtitle format used on BDs/HD-DVDs
  174. Duration                                 : 1 h 38 min
  175. Bit rate                                 : 69.7 kb/s
  176. Count of elements                        : 2530
  177. Stream size                              : 49.1 MiB (0%)
  178. Title                                    : CHS&ENG
  179. Language                                 : Chinese
  180. Default                                  : Yes
  181. Forced                                   : No
  182. Text #8
  183. ID                                       : 11
  184. Format                                   : PGS
  185. Muxing mode                              : zlib
  186. Codec ID                                 : S_HDMV/PGS
  187. Codec ID/Info                            : Picture based subtitle format used on BDs/HD-DVDs
  188. Duration                                 : 1 h 38 min
  189. Bit rate                                 : 70.6 kb/s
  190. Count of elements                        : 2530
  191. Stream size                              : 49.7 MiB (0%)
  192. Title                                    : CHT&ENG
  193. Language                                 : Chinese
  194. Default                                  : Yes
  195. Forced                                   : No
  196. Menu
  197. 00:00:00.000                             : en:第 01 章
  198. 00:02:51.837                             : en:第 02 章
  199. 00:09:17.056                             : en:第 03 章
  200. 00:14:30.285                             : en:第 04 章
  201. 00:22:11.621                             : en:第 05 章
  202. 00:29:30.101                             : en:第 06 章
  203. 00:46:25.740                             : en:第 07 章
  204. 00:52:24.932                             : en:第 08 章
  205. 01:02:05.722                             : en:第 09 章
  206. 01:15:37.365                             : en:第 10 章
  207. 01:23:45.520                             : en:第 11 章
  208. 01:36:35.788                             : en:第 12 章
  209. 01:38:53.344                             : en:第 13 章
复制代码


比佛利山超级警探2[国英多音轨/简繁英字幕].Beverly.Hills.Cop.II.1987.2160p.HDR.UHD.BluRay.DTS-HD.MA.5.1.2Audio.x265-10bit-ENTHD 15.50GB-2.jpeg
比佛利山超级警探2[国英多音轨/简繁英字幕].Beverly.Hills.Cop.II.1987.2160p.HDR.UHD.BluRay.DTS-HD.MA.5.1.2Audio.x265-10bit-ENTHD 15.50GB-3.jpeg
比佛利山超级警探2[国英多音轨/简繁英字幕].Beverly.Hills.Cop.II.1987.2160p.HDR.UHD.BluRay.DTS-HD.MA.5.1.2Audio.x265-10bit-ENTHD 15.50GB-4.jpeg
比佛利山超级警探2[国英多音轨/简繁英字幕].Beverly.Hills.Cop.II.1987.2160p.HDR.UHD.BluRay.DTS-HD.MA.5.1.2Audio.x265-10bit-ENTHD 15.50GB-5.jpeg
比佛利山超级警探2[国英多音轨/简繁英字幕].Beverly.Hills.Cop.II.1987.2160p.HDR.UHD.BluRay.DTS-HD.MA.5.1.2Audio.x265-10bit-ENTHD 15.50GB-6.jpeg
比佛利山超级警探2[国英多音轨/简繁英字幕].Beverly.Hills.Cop.II.1987.2160p.HDR.UHD.BluRay.DTS-HD.MA.5.1.2Audio.x265-10bit-ENTHD 15.50GB-7.jpeg










回复

使用道具 举报

蓝光币
26
发表于 2022-5-22 16:10:20 | 显示全部楼层
真的是这样的吗
回复 支持 反对

使用道具 举报

蓝光币
0
发表于 2022-5-22 17:19:07 | 显示全部楼层

其实我一直觉得楼主的品味不错!呵呵!蓝光电影网太棒了!
回复 支持 反对

使用道具 举报

蓝光币
746
发表于 2022-5-22 20:36:58 | 显示全部楼层
楼主发贴辛苦了,谢谢楼主分享!我觉得蓝光电影网是注册对了!
回复 支持 反对

使用道具 举报

蓝光币
46
发表于 2022-5-22 21:06:11 | 显示全部楼层

楼主太厉害了!楼主,电影应该很好看我觉得蓝光电影网真是个好地方!
回复 支持 反对

使用道具 举报

懒得打字嘛,点击右侧快捷回复 【右侧内容,后台自定义】
您需要登录后才可以回帖 登录 | 立即加入

本版积分规则

Archiver|小黑屋| 蓝光电影网 |网站地图

Copyright © 2021 Comsenz Inc. Powered by 蓝光电影网

蓝光电影网

本站内容由用户自主分享和转载自互联网,转载目的在于传递更多信息,并不代表本网赞同其观点和对其真实性负责。

如有侵权、违反国家法律政策行为,请联系我们,我们会第一时间及时清除和处理!

举报反馈邮箱:[email protected]

快速回复 返回顶部 返回列表