找回密码

蓝光电影网

查看: 236|回复: 2

[2160p-WEB] 前程似锦的女孩[杜比视界版本][简繁英字幕].Promising.Young.Woman.2020.2160p.MA.WEB-DL.DV.HEVC.Atmos.DDP5.1-OPT 20.08GB

[复制链接]
蓝光币
5
发表于 2022-5-23 03:24:54 | 显示全部楼层 |阅读模式
前程似锦的女孩[杜比视界版本][简繁英字幕].Promising.Young.Woman.2020.2160p.MA.WEB-DL.DV.HEVC.Atmos.DDP5.1-OPT 20.08GB-1.jpg

◎译  名 前程似锦的女孩 / 超犀女王(港) / 花漾女子(台) / 有前途的年轻女子
◎片  名 Promising Young Woman
◎年  代 2020
◎产  地 英国 / 美国
◎类  别 剧情 / 惊悚 / 犯罪
◎语  言 英语
◎上映日期 2020-01-25(圣丹斯电影节) / 2020-12-25(美国)
◎IMDb链接 https://www.imdb.com/title/tt9620292/
◎豆瓣评分 7.6/10 (52699人评价)
◎豆瓣链接 https://movie.douban.com/subject/30450313/
◎片  长 113分钟
◎导  演 埃默拉尔德·芬内尔 Emerald Fennell
◎编  剧 埃默拉尔德·芬内尔 Emerald Fennell
◎演  员 凯瑞·穆里根 Carey Mulligan
       博·伯翰 Bo Burnham
       爱丽森·布里 Alison Brie
       拉弗恩·考克斯 Laverne Cox
       克兰西·布朗 Clancy Brown
       詹妮佛·库里奇 Jennifer Coolidge
       克里斯托夫·梅兹-普莱瑟 Christopher Mintz-Plasse
       莫莉·香侬 Molly Shannon
       斯利姆·克什里 Slim Khezri
       山姆·理查森 Sam Richardson
       斯蒂夫·蒙罗埃 Steve Monroe
       亚当·布罗迪 Adam Brody
       康妮·布里登 Connie Britton
       阿尔弗雷德·莫里纳 Alfred Molina
       马克思·格林菲尔德 Max Greenfield
       克里斯·劳威尔 Chris Lowell
       詹妮尔·麦基 Jenelle McKee
       雷·尼科尔森 Ray Nicholson
       斯嘉丽·斯宾塞 Scarlet Spencer
       艾莉·哈特 Alli Hart
       弗朗西斯卡·埃斯特韦斯 Francisca Estevez
       蒂莫西 E.古德温 Timothy E. Goodwin
       安吉拉·周 Angela Zhou
       布莱恩·利利斯 Bryan Lillis
       加布里埃尔欧利华 Gabriel Oliva
       洛伦保罗 Loren Paul
       戴维·瑞德 David Reed
       比比·博克斯 Abi Beaux
       埃默拉尔德·芬内尔 Emerald Fennell
       汤姆·阿克雷 Tom Ackerley
       格伦·巴斯纳 Glen Basner
       埃默拉尔德·芬内尔 Emerald Fennell
       菲奥娜·沃尔什 Fiona Walsh
       凯瑞·穆里根 Carey Mulligan
       玛格特·罗比 Margot Robbie
       阿什莉·福克斯 Ashley Fox
       本·布朗宁 Ben Browning
       乔西·麦克纳马拉 Josey McNamara
       安东尼·威利斯 Anthony Willis
       本杰明·克拉昆 Benjamin Kracun
       弗雷德里克·托拉瓦尔 Frédéric Thoraval
       迈克尔·佩里 Michael Perry
       南西·斯坦纳 Nancy Steiner
◎简  介
  卡桑德拉(凯瑞·穆里根 Carey Mulligan 饰)曾是医学院里前途无量的高材生,却由于朋友的自杀而挑选了退学。白天,卡桑德拉在咖啡店里打零工,而每当夜幕来临,她城市换上一身性感的打扮,出没于城市里各间声色犬马的夜总会当中,她会假扮成醉酒的样子,期待着某个“善良”的汉子将她带回自己家中,由此来实行她对于汉子的无伤风雅的报复。                                    
                                一天,卡桑德拉在咖啡店里和已经的同学雷恩(博·伯翰 Bo Burnham 饰)重逢了,雷恩以后起头了对前者的热烈追求。雷恩的出现再次勾起了卡桑德拉对于门生时代悲凉履历的回忆,当她得知已经形成自己好友灭亡的罪魁罪魁们现在都过上了各自出色的人生后,复仇的火苗在心里里愈演愈烈。
◎获奖情况 (共58项)
  第78届金球奖 (2021)
  电影类 最好剧情片(提名)
  电影类 最好导演(提名)
   └──埃默拉尔德·芬内尔
  电影类 剧情片最好女配角(提名)
   └──凯瑞·穆里根
  电影类 最好编剧(提名)
   └──埃默拉尔德·芬内尔
  第74届英国电影学院奖 (2021)
  电影奖 最好影片(提名)
  电影奖 最好英国影片
   └──埃默拉尔德·芬内尔
  电影奖 最好原创剧本
  电影奖 最好剪辑(提名)
  电影奖 最好原创配乐(提名)
  电影奖 最好选角(提名)
  第34届欧洲电影奖 (2021)
  最好女配角(提名)
   └──凯瑞·穆里根
  费比西-发现奖
  第36届西班牙戈雅奖 (2022)
  最好欧洲电影(提名)
  第73届美国导演工会奖 (2021)
  最好电影导演(提名)
   └──埃默拉尔德·芬内尔
  第27届美国演员工会奖 (2021)
  电影奖 最好女配角(提名)
   └──凯瑞·穆里根
  第73届美国编剧工会奖 (2021)
  电影奖 最好原创剧本
   └──埃默拉尔德·芬内尔
  第32届美国制片野生会奖 (2021)
  最好电影制片人奖(提名)
  第71届美国剪辑工会奖 (2021)
  音乐/笑剧片最好剪辑(提名)
   └──弗雷德里克·托拉瓦尔
  第25届美国艺术指导工会奖 (2021)
  电影奖 最好今世电影艺术指导(提名)
   └──迈克尔·佩里
  第23届美国打扮设想工会奖 (2021)
  现代电影最好打扮设想(提名)
   └──南西·斯坦纳
  第8届美国化装及发型设想工会奖 (2021)
  电影类最好现代戏化装(提名)
  电影类最好现代戏发型设想(提名)
  第92届美国国家批评协会奖 (2020)
  最好女配角
   └──凯瑞·穆里根
  年度佳片
  第26届美国批评家挑选电影奖 (2021)
  最好影片(提名)
  最好导演(提名)
   └──埃默拉尔德·芬内尔
  最好女配角
   └──凯瑞·穆里根
  最好原创剧本
   └──埃默拉尔德·芬内尔
  最好打扮设想(提名)
   └──南西·斯坦纳
  最好发型化装(提名)
  第36届美国自力精神奖 (2021)
  最好导演(提名)
   └──埃默拉尔德·芬内尔
  最好女配角
   └──凯瑞·穆里根
  最好剧本
  第25届金卫星奖 (2021)
  电影部分 最好剧情片(提名)
  电影部分 剧情片最好女配角(提名)
   └──凯瑞·穆里根
  电影部分 最好原创剧本(提名)
   └──埃默拉尔德·芬内尔
  作者导演奖
   └──埃默拉尔德·芬内尔
  第41届伦敦影评人协会奖 (2021)
  年度电影(提名)
  年度女配角(提名)
   └──凯瑞·穆里根
  年度英国/爱尔兰女演员(提名)
   └──凯瑞·穆里根
  年度冲破英国/爱尔兰电影人(提名)
   └──埃默拉尔德·芬内尔
  第46届洛杉矶影评人协会奖 (2020)
  最好女配角
   └──凯瑞·穆里根
  最好剧本
   └──埃默拉尔德·芬内尔
  第33届芝加哥影评人协会奖 (2020)
  最好影片(提名)
  最好导演(提名)
   └──埃默拉尔德·芬内尔
  最好女配角(提名)
   └──凯瑞·穆里根
  最好原创剧本(提名)
   └──埃默拉尔德·芬内尔
  最具冲破导演(米洛斯·斯泰利克奖)
   └──埃默拉尔德·芬内尔
  第5届亚特兰大影评人协会奖 (2020)
  十佳影片
  最好导演(提名)
   └──埃默拉尔德·芬内尔
  最好女配角
   └──凯瑞·穆里根
  最好编剧
   └──埃默拉尔德·芬内尔
  最好童贞作
   └──埃默拉尔德·芬内尔
  第24届美国在线影评人协会奖 (2021)
  最好影片(提名)
  最好导演(提名)
   └──埃默拉尔德·芬内尔
  最好女配角(提名)
   └──凯瑞·穆里根
  最好原创剧本
   └──埃默拉尔德·芬内尔
  最好冲破导演
   └──埃默拉尔德·芬内尔
  1. ##### MediaInfo ######
  2. General
  3. Unique ID                                : 21594518961458018033412378694070040588 (0x103EF3FC6976D07B3BFD8C95721FF80C)
  4. Complete name                            : Promising.Young.Woman.2020.2160p.MA.WEB-DL.DV.HEVC.Atmos.DDP5.1-OPT.mkv
  5. Format                                   : Matroska
  6. Format version                           : Version 4
  7. File size                                : 20.1 GiB
  8. Duration                                 : 1 h 53 min
  9. Overall bit rate                         : 25.2 Mb/s
  10. Movie name                               : Promising Young Woman
  11. Encoded date                             : UTC 2022-05-19 08:42:18
  12. Writing application                      : mkvmerge v61.0.0 ('So') 64-bit
  13. Writing library                          : libebml v1.4.2 + libmatroska v1.6.4
  14. Cover                                    : Yes
  15. Attachments                              : Cover.jpg
  16. Video
  17. ID                                       : 1
  18. Format                                   : HEVC
  19. Format/Info                              : High Efficiency Video Coding
  20. Format profile                           : Main [email protected]@High
  21. Codec ID                                 : V_MPEGH/ISO/HEVC
  22. Duration                                 : 1 h 53 min
  23. Bit rate                                 : 24.5 Mb/s
  24. Width                                    : 3 840 pixels
  25. Height                                   : 2 160 pixels
  26. Display aspect ratio                     : 16:9
  27. Frame rate mode                          : Constant
  28. Frame rate                               : 23.976 (24000/1001/53875) FPS
  29. Color space                              : YUV
  30. Chroma subsampling                       : 4:2:0 (Type 0)
  31. Bit depth                                : 10 bits
  32. Bits/(Pixel*Frame)                       : 0.123
  33. Stream size                              : 19.5 GiB (97%)
  34. Language                                 : English
  35. Default                                  : Yes
  36. Forced                                   : No
  37. Color range                              : Full
  38. Audio
  39. ID                                       : 2
  40. Format                                   : E-AC-3 JOC
  41. Format/Info                              : Enhanced AC-3 with Joint Object Coding
  42. Commercial name                          : Dolby Digital Plus with Dolby Atmos
  43. Codec ID                                 : A_EAC3
  44. Duration                                 : 1 h 53 min
  45. Bit rate mode                            : Constant
  46. Bit rate                                 : 768 kb/s
  47. Channel(s)                               : 6 channels
  48. Channel layout                           : L R C LFE Ls Rs
  49. Sampling rate                            : 48.0 kHz
  50. Frame rate                               : 31.250 FPS (1536 SPF)
  51. Compression mode                         : Lossy
  52. Stream size                              : 626 MiB (3%)
  53. Language                                 : English
  54. Service kind                             : Complete Main
  55. Default                                  : Yes
  56. Forced                                   : No
  57. Complexity index                         : 16
  58. Number of dynamic objects                : 15
  59. Bed channel count                        : 1 channel
  60. Bed channel configuration                : LFE
  61. Text #1
  62. ID                                       : 3
  63. Format                                   : UTF-8
  64. Codec ID                                 : S_TEXT/UTF8
  65. Codec ID/Info                            : UTF-8 Plain Text
  66. Duration                                 : 1 h 53 min
  67. Bit rate                                 : 77 b/s
  68. Count of elements                        : 2331
  69. Stream size                              : 64.4 KiB (0%)
  70. Title                                    : SDH
  71. Language                                 : English
  72. Default                                  : No
  73. Forced                                   : No
  74. Text #2
  75. ID                                       : 4
  76. Format                                   : UTF-8
  77. Codec ID                                 : S_TEXT/UTF8
  78. Codec ID/Info                            : UTF-8 Plain Text
  79. Duration                                 : 1 h 53 min
  80. Bit rate                                 : 69 b/s
  81. Count of elements                        : 2138
  82. Stream size                              : 57.4 KiB (0%)
  83. Language                                 : English
  84. Default                                  : No
  85. Forced                                   : No
  86. Text #3
  87. ID                                       : 5
  88. Format                                   : UTF-8
  89. Codec ID                                 : S_TEXT/UTF8
  90. Codec ID/Info                            : UTF-8 Plain Text
  91. Duration                                 : 1 h 46 min
  92. Bit rate                                 : 89 b/s
  93. Count of elements                        : 1459
  94. Stream size                              : 70.1 KiB (0%)
  95. Language                                 : Arabic
  96. Default                                  : No
  97. Forced                                   : No
  98. Text #4
  99. ID                                       : 6
  100. Format                                   : UTF-8
  101. Codec ID                                 : S_TEXT/UTF8
  102. Codec ID/Info                            : UTF-8 Plain Text
  103. Duration                                 : 1 h 46 min
  104. Bit rate                                 : 66 b/s
  105. Count of elements                        : 1588
  106. Stream size                              : 52.1 KiB (0%)
  107. Title                                    : Canadian
  108. Language                                 : French
  109. Default                                  : No
  110. Forced                                   : No
  111. Text #5
  112. ID                                       : 7
  113. Format                                   : UTF-8
  114. Codec ID                                 : S_TEXT/UTF8
  115. Codec ID/Info                            : UTF-8 Plain Text
  116. Duration                                 : 1 h 46 min
  117. Bit rate                                 : 64 b/s
  118. Count of elements                        : 1812
  119. Stream size                              : 50.5 KiB (0%)
  120. Title                                    : Latin American
  121. Language                                 : Spanish
  122. Default                                  : No
  123. Forced                                   : No
  124. Text #6
  125. ID                                       : 8
  126. Format                                   : UTF-8
  127. Codec ID                                 : S_TEXT/UTF8
  128. Codec ID/Info                            : UTF-8 Plain Text
  129. Duration                                 : 1 h 46 min
  130. Bit rate                                 : 48 b/s
  131. Count of elements                        : 1598
  132. Stream size                              : 38.0 KiB (0%)
  133. Title                                    : 简体中字
  134. Language                                 : Chinese
  135. Default                                  : Yes
  136. Forced                                   : No
  137. Text #7
  138. ID                                       : 9
  139. Format                                   : UTF-8
  140. Codec ID                                 : S_TEXT/UTF8
  141. Codec ID/Info                            : UTF-8 Plain Text
  142. Duration                                 : 1 h 46 min
  143. Bit rate                                 : 48 b/s
  144. Count of elements                        : 1598
  145. Stream size                              : 38.0 KiB (0%)
  146. Title                                    : 繁体中字
  147. Language                                 : Chinese
  148. Default                                  : Yes
  149. Forced                                   : No
  150. Text #8
  151. ID                                       : 10
  152. Format                                   : ASS
  153. Codec ID                                 : S_TEXT/ASS
  154. Codec ID/Info                            : Advanced Sub Station Alpha
  155. Duration                                 : 1 h 46 min
  156. Bit rate                                 : 110 b/s
  157. Count of elements                        : 1598
  158. Compression mode                         : Lossless
  159. Stream size                              : 86.8 KiB (0%)
  160. Title                                    : 简体中字
  161. Language                                 : Chinese
  162. Default                                  : Yes
  163. Forced                                   : No
  164. Text #9
  165. ID                                       : 11
  166. Format                                   : ASS
  167. Codec ID                                 : S_TEXT/ASS
  168. Codec ID/Info                            : Advanced Sub Station Alpha
  169. Duration                                 : 1 h 46 min
  170. Bit rate                                 : 110 b/s
  171. Count of elements                        : 1598
  172. Compression mode                         : Lossless
  173. Stream size                              : 86.8 KiB (0%)
  174. Title                                    : 繁体中字
  175. Language                                 : Chinese
  176. Default                                  : Yes
  177. Forced                                   : No
  178. Menu
  179. 00:00:00.000                             : Chapter 1
  180. 00:09:12.000                             : Chapter 2
  181. 00:13:57.000                             : Chapter 3
  182. 00:20:28.000                             : Chapter 4
  183. 00:25:46.000                             : Chapter 5
  184. 00:34:46.000                             : Chapter 6
  185. 00:40:16.000                             : Chapter 7
  186. 00:43:00.000                             : Chapter 8
  187. 00:49:22.000                             : Chapter 9
  188. 00:54:52.000                             : Chapter 10
  189. 00:59:25.000                             : Chapter 11
  190. 01:04:34.000                             : Chapter 12
  191. 01:08:09.000                             : Chapter 13
  192. 01:12:31.000                             : Chapter 14
  193. 01:18:35.000                             : Chapter 15
  194. 01:22:05.000                             : Chapter 16
  195. 01:26:09.000                             : Chapter 17
  196. 01:36:14.000                             : Chapter 18
  197. 01:43:43.000                             : Chapter 19
  198. 01:48:01.000                             : Chapter 20
复制代码










回复

使用道具 举报

蓝光币
416
发表于 2022-5-23 14:34:17 | 显示全部楼层
感谢分享
回复

使用道具 举报

蓝光币
148
发表于 2022-5-26 07:42:47 | 显示全部楼层
看到这么多的奖项,应该是不错的电影,找来看看吧。
回复 支持 反对

使用道具 举报

懒得打字嘛,点击右侧快捷回复 【右侧内容,后台自定义】
您需要登录后才可以回帖 登录 | 立即加入

本版积分规则

Archiver|小黑屋| 蓝光电影网 |网站地图

Copyright © 2021 Comsenz Inc. Powered by 蓝光电影网

蓝光电影网

本站内容由用户自主分享和转载自互联网,转载目的在于传递更多信息,并不代表本网赞同其观点和对其真实性负责。

如有侵权、违反国家法律政策行为,请联系我们,我们会第一时间及时清除和处理!

举报反馈邮箱:[email protected]

快速回复 返回顶部 返回列表