找回密码

蓝光电影网

查看: 255|回复: 12

[2160p-WEB] 蜘蛛侠[国英多音轨/中英字幕].Spider-Man.2002.WEB-DL.2160p.x265.10bit.2Audio-MiniHD 32.65GB

[复制链接]
蓝光币
5
发表于 2022-5-23 03:45:09 | 显示全部楼层 |阅读模式
蜘蛛侠[国英多音轨/中英字幕].Spider-Man.2002.WEB-DL.2160p.x265.10bit.2Audio-MiniHD 32.65GB-1.jpg

◎译  名 蜘蛛侠 / 蜘蛛人(台)
◎片  名 Spider-Man
◎年  代 2002
◎产  地 美国
◎类  别 行动 / 科幻 / 冒险
◎语  言 英语
◎上映日期 2002-08-07(中国大陆) / 2002-05-03(美国)
◎IMDb链接 https://www.imdb.com/title/tt0145487/
◎豆瓣评分 8.0/10 (345521人评价)
◎豆瓣链接 https://movie.douban.com/subject/1306612/
◎片  长 121 分钟
◎导  演 山姆·雷米 Sam Raimi
◎编  剧 大卫·凯普 David Koepp
       斯坦·李 Stan Lee
       史蒂夫·迪特寇 Steve Ditko
◎演  员 托比·马奎尔 Tobey Maguire
       威廉·达福 Willem Dafoe
       克斯汀·邓斯特 Kirsten Dunst
       詹姆斯·弗兰科 James Franco
       克里夫·罗伯逊 Cliff Robertson
       罗斯玛丽·哈里斯 Rosemary Harris
       J·K·西蒙斯 J.K. Simmons
       乔·曼根尼罗 Joe Manganiello
       格里·贝克尔 Gerry Becker
       比尔·努恩 Bill Nunn
       杰克·贝茨 Jack Betts
       斯坦利·安德森 Stanley Anderson
       罗恩·帕金斯 Ron Perkins
       迈克尔·帕帕约翰 Michael Papajohn
       布鲁斯·坎贝尔 Bruce Campbell
       斯坦·李 Stan Lee
       伊丽莎白·班克斯 Elizabeth Banks
       奥克塔维亚·斯宾瑟 Octavia Spencer
       露西·劳莱丝 Lucy Lawless
       莎拉·拉米尔兹 Sara Ramirez
       宾尼·尤奎德兹 Benny Urquidez
       斯科特·斯皮格尔 Scott Spiegel
       吉姆·诺顿 Jim Norton
       杰西·巴托克 Jayce Bartok
       金锋 Feng Jin
       阿什丽·艾德纳 Ashley Edner
       罗伯特·科尔曼 Robert Kerman
       彼得·阿佩尔 Peter Appel
       杰西·海曼 Jesse Heiman
       席尔瓦·克莱吉安 Sylva Kelegian
       泰德·雷米 Ted Raimi
       玛西·格雷 Macy Gray
       迈克·沃特福德 Myk Watford
       Tammi Sutton Tammi Sutton
       Lou Torres Lou Torres
       Jillian Clare Jillian Clare
       Jacob Chambers Jacob Chambers
       兰迪·霍尔 Randy Hall
       菲利普·吴 Philip Ng
       Kristen Marie Holly Kristen Marie Holly
       克劳迪娅·卡茨 Claudia Katz
       Derek C. Wallace Derek C. Wallace
       阿杰·梅赫塔 Ajay Mehta
       Lance Polland Lance Polland
       Sean Valla Sean Valla
       Jophery C. Brown Jophery C. Brown
       Alex Black Alex Black
       Andy Bray Andy Bray
       布拉德·格伦伯格 Brad Grunberg
       Jill Sayre Jill Sayre
       兰迪·萨瓦格 Randy Savage
       杰森·帕德格特 Jason Padgett
       Joy Michelle Moore Joy Michelle Moore
       David Holcomb David Holcomb
       Al Goto Al Goto
       Shane Habberstad Shane Habberstad
       比尔·卡尔弗特 Bill Calvert
       洛伦·简斯 Loren Janes
       Andray Johnson Andray Johnson
       拉里·约书亚 Larry Joshua
       Juan M. Guerra Juan M. Guerra
       Ari Averbach Ari Averbach
        Patrick Coleman Duncan
        Cody Cundiff
        Richard Stephens
        Marcus Gorman
       瑞克·艾弗里 Rick Avery
       Gary Otto Gary Otto
       Margaret Baker Margaret Baker
       John Wojnowski III John Wojnowski III
       Erica D. Porter Erica D. Porter
       Camille Bennett Camille Bennett
       Leroy Patterson Leroy Patterson
       Peter Genovese Peter Genovese
       萨默·雷石东 Sumner Redstone
       Justin Neill Justin Neill
       R.C. Everbeck R.C. Everbeck
       斯坦·李 Stan Lee
       劳拉·泽斯金 Laura Ziskin
       史蒂文·P·塞塔 Steven P. Saeta
       海迪·弗尤格曼 Heidi Fugeman
       伊安·布莱斯 Ian Bryce
       丹尼·艾夫曼 Danny Elfman
       德里克·惠布利 Deryck Whibley
       唐·伯吉斯 Don Burgess
       鲍勃·穆拉夫斯基 Bob Murawski
       弗兰辛·梅思勒 Francine Maisler
       Lynn Kressel Lynn Kressel
       Tony Fanning Tony Fanning
       凯伦·奥哈拉 Karen O'Hara
       詹姆斯·艾奇逊 James Acheson
       黛博拉·拉·米亚·德内弗 Deborah La Mia Denaver
       Wade Daily Wade Daily
       Carolyn Elias Carolyn Elias
       汤姆·伍德鲁夫 Tom Woodruff Jr.
       Karen Westerfield Karen Westerfield
       金伯利·斯皮特里 Kimberley Spiteri
       Bill Myer Bill Myer
       Janice Alexander Janice Alexander
       迈克尔·杰曼 Michael Germain
       Elaina P. Schulman Elaina P. Schulman
       Barbara Wilder Barbara Wilder
       Gary Archer Gary Archer
       Lumas Hamilton Jr. Lumas Hamilton Jr.
       Jeff Habberstad Jeff Habberstad
       Lisa C. Satriano Lisa C. Satriano
       巴克·德洛姆 Bac DeLorme
       尼克·萨特里亚诺 Nick Satriano
       安东尼·拉默里纳拉 Anthony LaMolinara
       胡升忠 Sing-Choong Foo
       杰奎·巴恩布鲁克 Jacquie Barnbrook
       约翰·戴克斯特拉 John Dykstra
       格雷戈里·克里泽 Gregory Creaser
       Lydia Bottegoni Lydia Bottegoni
       斯宾塞·库克 Spencer Cook
       Greg Derochie Greg Derochie
       科林·德罗布尼斯 Colin Drobnis
       Daniel Eaton Daniel Eaton
       Fish Essenfeld Fish Essenfeld
       斯科特·斯多克迪克 Scott Stokdyk
       Chris Antonini Chris Antonini
       Brett Gassaway Brett Gassaway
       Anthony Ceccomancini Anthony Ceccomancini
       Patrick Murphy Patrick Murphy
       Chris B. Schnitzer Chris B. Schnitzer
       Messrob Torikian Messrob Torikian
       Matt Dessero Matt Dessero
       James Waterhouse James Waterhouse
       Jeff Olm Jeff Olm
       Erica Hornung Erica Hornung
       Christopher D. Williams Christopher D. Williams
       福尔图纳托·弗拉塔西奥 Fortunato Frattasio
       吉姆·戈尔曼 Jim Gorman
       雷·麦金太尔 Ray McIntyre Jr.
       Dan Abrams Dan Abrams
       安东尼·哈里斯 Anthony Harris
       John E. Sasaki John E. Sasaki
       Earl Wiggins Earl Wiggins
       杰夫·沃尔弗顿 Jeff Wolverton
       John Monos John Monos
       Danny Dimian Danny Dimian
       Alex Grau Alex Grau
       彼得·诺弗兹 Peter Nofz
       凯伦·E·戈勒卡斯 Karen E. Goulekas
       迪昂·哈奇 Dion Hatch
       Pedram Goshtasbpour Pedram Goshtasbpour
       卡尔·胡珀 Carl Hooper
       Leigh-Alexandra Jacob Leigh-Alexandra Jacob
       Bruno Vilela Bruno Vilela
       克里斯·琼恩 Chris Juen
       Daniel Kramer Daniel Kramer
       布拉德·库恩 Brad Kuehn
       丹·格列齐斯 Dan Trezise
◎简  介
  彼得 帕克(托比?马奎尔 Tobey Maguire 饰)只是美国一个普通的高中生,当一次他被蜘蛛博物馆偷跑出来的变种蜘蛛咬了一口以后,彼得的生活完全改变了。他变得和蜘蛛一样,具有各类蜘蛛独有的超才能:从手指喷出粘力极强的蜘蛛丝、飞檐走壁等等。彼得兴奋异常,起头操纵自己的超才能去赢利。但当他最爱的叔叔被自己放走的罪犯杀死后,彼得立誓要用自己的超才能去冲击犯罪。                                    
                                彼得好友哈利的父亲诺曼(威廉?达福 Willem Dafoe 饰)是一家生物科技公司的老板,因自己公司生产的飞翔器没获得军方领袖欣赏而忧心不胜。一次意外诺曼吸出神经毒气而具有了超才能,激发了本身邪恶的赋性,骑着自己研发的飞翔器去向处破坏、杀人。彼得化身的蜘蛛侠起头反击了!
◎获奖情况 (共3项)
  第75届奥斯卡金像奖 (2003)
  最好视觉结果(提名)
  最好声响(提名)
  第56届英国电影学院奖 (2003)
  电影奖 最好特别视觉结果(提名)
  1. ##### MediaInfo ######
  2. General
  3. Unique ID                                : 170295199236823097188372809849162170065 (0x801DA990656338758D9502D1A323FED1)
  4. Complete name                            : Spider-Man.2002.WEB-DL.2160p.x265.10bit.2Audio-MiniHD.mkv
  5. Format                                   : Matroska
  6. Format version                           : Version 4
  7. File size                                : 32.6 GiB
  8. Duration                                 : 2 h 1 min
  9. Overall bit rate                         : 38.6 Mb/s
  10. Encoded date                             : UTC 2015-11-26 08:52:18
  11. Writing application                      : mkvmerge v7.5.0 ('Glass Culture') 64bit built on Jan  4 2015 16:48:44
  12. Writing library                          : libebml v1.3.1 + libmatroska v1.4.2
  13. Video
  14. ID                                       : 1
  15. Format                                   : HEVC
  16. Format/Info                              : High Efficiency Video Coding
  17. Codec ID                                 : V_MPEGH/ISO/HEVC
  18. Duration                                 : 2 h 1 min
  19. Bit rate                                 : 37.1 Mb/s
  20. Width                                    : 3 840 pixels
  21. Height                                   : 2 080 pixels
  22. Display aspect ratio                     : 1.85:1
  23. Frame rate mode                          : Constant
  24. Frame rate                               : 23.976 (24000/1001/53875) FPS
  25. Bits/(Pixel*Frame)                       : 0.194
  26. Stream size                              : 31.4 GiB (96%)
  27. Default                                  : Yes
  28. Forced                                   : No
  29. Audio #1
  30. ID                                       : 2
  31. Format                                   : AC-3
  32. Format/Info                              : Audio Coding 3
  33. Commercial name                          : Dolby Digital
  34. Codec ID                                 : A_AC3
  35. Duration                                 : 2 h 1 min
  36. Bit rate mode                            : Constant
  37. Bit rate                                 : 640 kb/s
  38. Channel(s)                               : 6 channels
  39. Channel layout                           : L R C LFE Ls Rs
  40. Sampling rate                            : 48.0 kHz
  41. Frame rate                               : 31.250 FPS (1536 SPF)
  42. Compression mode                         : Lossy
  43. Delay relative to video                  : 12 ms
  44. Stream size                              : 555 MiB (2%)
  45. Language                                 : English
  46. Service kind                             : Complete Main
  47. Default                                  : Yes
  48. Forced                                   : No
  49. Audio #2
  50. ID                                       : 3
  51. Format                                   : DTS
  52. Format/Info                              : Digital Theater Systems
  53. Codec ID                                 : A_DTS
  54. Duration                                 : 2 h 1 min
  55. Bit rate mode                            : Constant
  56. Bit rate                                 : 754 kb/s
  57. Channel(s)                               : 6 channels
  58. Channel layout                           : C L R Ls Rs LFE
  59. Sampling rate                            : 48.0 kHz
  60. Frame rate                               : 93.750 FPS (512 SPF)
  61. Bit depth                                : 24 bits
  62. Compression mode                         : Lossy
  63. Delay relative to video                  : 1 ms
  64. Stream size                              : 654 MiB (2%)
  65. Language                                 : Chinese
  66. Default                                  : No
  67. Forced                                   : No
  68. Text #1
  69. ID                                       : 4
  70. Format                                   : PGS
  71. Muxing mode                              : zlib
  72. Codec ID                                 : S_HDMV/PGS
  73. Codec ID/Info                            : Picture based subtitle format used on BDs/HD-DVDs
  74. Duration                                 : 1 h 52 min
  75. Bit rate                                 : 12.1 kb/s
  76. Count of elements                        : 2400
  77. Stream size                              : 9.72 MiB (0%)
  78. Language                                 : English
  79. Default                                  : Yes
  80. Forced                                   : No
  81. Text #2
  82. ID                                       : 5
  83. Format                                   : PGS
  84. Muxing mode                              : zlib
  85. Codec ID                                 : S_HDMV/PGS
  86. Codec ID/Info                            : Picture based subtitle format used on BDs/HD-DVDs
  87. Duration                                 : 1 h 55 min
  88. Bit rate                                 : 12.2 kb/s
  89. Count of elements                        : 2861
  90. Stream size                              : 10.1 MiB (0%)
  91. Language                                 : Chinese
  92. Default                                  : No
  93. Forced                                   : No
  94. Text #3
  95. ID                                       : 6
  96. Format                                   : PGS
  97. Muxing mode                              : zlib
  98. Codec ID                                 : S_HDMV/PGS
  99. Codec ID/Info                            : Picture based subtitle format used on BDs/HD-DVDs
  100. Duration                                 : 1 h 55 min
  101. Bit rate                                 : 12.5 kb/s
  102. Count of elements                        : 2861
  103. Stream size                              : 10.3 MiB (0%)
  104. Language                                 : Chinese
  105. Default                                  : No
  106. Forced                                   : No
  107. Text #4
  108. ID                                       : 7
  109. Format                                   : PGS
  110. Muxing mode                              : zlib
  111. Codec ID                                 : S_HDMV/PGS
  112. Codec ID/Info                            : Picture based subtitle format used on BDs/HD-DVDs
  113. Duration                                 : 1 h 55 min
  114. Bit rate                                 : 17.0 kb/s
  115. Count of elements                        : 2468
  116. Stream size                              : 14.0 MiB (0%)
  117. Language                                 : Chinese
  118. Default                                  : No
  119. Forced                                   : No
  120. Text #5
  121. ID                                       : 8
  122. Format                                   : PGS
  123. Muxing mode                              : zlib
  124. Codec ID                                 : S_HDMV/PGS
  125. Codec ID/Info                            : Picture based subtitle format used on BDs/HD-DVDs
  126. Duration                                 : 1 h 55 min
  127. Bit rate                                 : 17.3 kb/s
  128. Count of elements                        : 2468
  129. Stream size                              : 14.2 MiB (0%)
  130. Language                                 : Chinese
  131. Default                                  : No
  132. Forced                                   : No
  133. Menu
  134. 00:00:00.000                             : :Chapter 01
  135. 00:06:29.472                             : :Chapter 02
  136. 00:09:22.895                             : :Chapter 03
  137. 00:14:56.186                             : :Chapter 04
  138. 00:17:50.652                             : :Chapter 05
  139. 00:21:53.603                             : :Chapter 06
  140. 00:23:28.615                             : :Chapter 07
  141. 00:25:18.767                             : :Chapter 08
  142. 00:34:35.114                             : :Chapter 09
  143. 00:40:22.169                             : :Chapter 10
  144. 00:41:44.126                             : :Chapter 11
  145. 00:43:13.882                             : :Chapter 12
  146. 00:44:40.010                             : :Chapter 13
  147. 00:54:32.978                             : :Chapter 14
  148. 00:55:52.557                             : :Chapter 15
  149. 01:00:48.936                             : :Chapter 16
  150. 01:04:20.773                             : :Chapter 17
  151. 01:05:57.036                             : :Chapter 18
  152. 01:12:12.369                             : :Chapter 19
  153. 01:14:18.871                             : :Chapter 20
  154. 01:15:48.669                             : :Chapter 21
  155. 01:19:35.520                             : :Chapter 22
  156. 01:22:06.463                             : :Chapter 23
  157. 01:25:13.608                             : :Chapter 24
  158. 01:30:39.225                             : :Chapter 25
  159. 01:39:36.679                             : :Chapter 26
  160. 01:45:08.385                             : :Chapter 27
  161. 01:50:27.829                             : :Chapter 28
复制代码


蜘蛛侠[国英多音轨/中英字幕].Spider-Man.2002.WEB-DL.2160p.x265.10bit.2Audio-MiniHD 32.65GB-2.jpeg
蜘蛛侠[国英多音轨/中英字幕].Spider-Man.2002.WEB-DL.2160p.x265.10bit.2Audio-MiniHD 32.65GB-3.jpeg
蜘蛛侠[国英多音轨/中英字幕].Spider-Man.2002.WEB-DL.2160p.x265.10bit.2Audio-MiniHD 32.65GB-4.jpeg
蜘蛛侠[国英多音轨/中英字幕].Spider-Man.2002.WEB-DL.2160p.x265.10bit.2Audio-MiniHD 32.65GB-5.jpeg
蜘蛛侠[国英多音轨/中英字幕].Spider-Man.2002.WEB-DL.2160p.x265.10bit.2Audio-MiniHD 32.65GB-6.jpeg
蜘蛛侠[国英多音轨/中英字幕].Spider-Man.2002.WEB-DL.2160p.x265.10bit.2Audio-MiniHD 32.65GB-7.jpeg










回复

使用道具 举报

蓝光币
91
发表于 2022-5-23 08:41:26 | 显示全部楼层
好电影哦 一定哟支持!好的!
回复 支持 反对

使用道具 举报

蓝光币
201
发表于 2022-5-23 12:54:19 | 显示全部楼层
回顾经典,支持一下,谢谢分享
回复 支持 反对

使用道具 举报

蓝光币
0
发表于 2022-5-23 13:13:33 | 显示全部楼层

楼主太厉害了!楼主,电影应该很好看我觉得蓝光电影网真是个好地方!
回复 支持 反对

使用道具 举报

蓝光币
1
发表于 2022-5-23 17:08:04 | 显示全部楼层
厉害啊,这次终于可以下载超高清的蓝光电影看啦,感谢楼主分享。
回复 支持 反对

使用道具 举报

蓝光币
3378
发表于 2022-5-23 18:47:27 | 显示全部楼层

既然你诚信诚意的推荐了,那我就勉为其难的看看吧!蓝光电影网不走平凡路。
回复 支持 反对

使用道具 举报

蓝光币
135
发表于 2022-5-23 19:50:10 | 显示全部楼层

既然你诚信诚意的推荐了,那我就勉为其难的看看吧!蓝光电影网不走平凡路。
回复 支持 反对

使用道具 举报

蓝光币
396
发表于 2022-5-23 20:23:17 | 显示全部楼层

楼主太厉害了!楼主,电影应该很好看我觉得蓝光电影网真是个好地方!
回复 支持 反对

使用道具 举报

蓝光币
61
发表于 2022-5-23 20:39:34 | 显示全部楼层
楼主发贴辛苦了,谢谢楼主分享!我觉得蓝光电影网是注册对了!
回复 支持 反对

使用道具 举报

蓝光币
46
发表于 2022-5-24 00:17:33 | 显示全部楼层
楼主发贴辛苦了,谢谢楼主分享!我觉得蓝光电影网是注册对了!
回复 支持 反对

使用道具 举报

懒得打字嘛,点击右侧快捷回复 【右侧内容,后台自定义】
您需要登录后才可以回帖 登录 | 立即加入

本版积分规则

Archiver|小黑屋| 蓝光电影网 |网站地图

Copyright © 2021 Comsenz Inc. Powered by 蓝光电影网

蓝光电影网

本站内容由用户自主分享和转载自互联网,转载目的在于传递更多信息,并不代表本网赞同其观点和对其真实性负责。

如有侵权、违反国家法律政策行为,请联系我们,我们会第一时间及时清除和处理!

举报反馈邮箱:[email protected]

快速回复 返回顶部 返回列表