找回密码

蓝光电影网

查看: 73|回复: 0

[剧情] 回到未来2[国英多音轨/中英字幕].Back.to.the.Future.Part.II.1989.BluRay.1080p.x265.10bit.2Audio-MiniHD 5.11GB

[复制链接]
蓝光币
7
发表于 2022-6-1 23:48:02 | 显示全部楼层 |阅读模式
回到未来2[国英多音轨/中英字幕].Back.to.the.Future.Part.II.1989.BluRay.1080p.x265.10bit.2Audio-MiniHD 5.11GB-1.jpeg

◎译  名 回到未来2 / 回到未来第二集
◎片  名 Back to the Future Part II
◎年  代 1989
◎产  地 美国
◎类  别 笑剧 / 科幻 / 冒险
◎语  言 英语
◎上映日期 1989-11-22(美国)
◎IMDb链接 https://www.imdb.com/title/tt0096874/
◎豆瓣评分 8.5/10 (100613人评价)
◎豆瓣链接 https://movie.douban.com/subject/1299092/
◎片  长 108分钟
◎导  演 罗伯特·泽米吉斯 Robert Zemeckis
◎编  剧 鲍勃·盖尔 Bob Gale
       罗伯特·泽米吉斯 Robert Zemeckis
◎演  员 迈克尔·J·福克斯 Michael J. Fox
       克里斯托弗·洛伊德 Christopher Lloyd
       莉·汤普森 Lea Thompson
       托马斯·F·威尔森 Thomas F. Wilson
       伊丽莎白·苏 Elisabeth Shue
       詹姆斯·托根 James Tolkan
       杰弗里·韦斯曼 Jeffrey Weissman
       凯西·希玛兹科 Casey Siemaszko
       比利·赞恩 Billy Zane
       J·J·科恩 J.J. Cohen
       查尔斯·弗莱舍 Charles Fleischer
       卡萨诺瓦·埃文斯 E. Casanova Evans
       杰伊·科赫 Jay Koch
       查尔斯·格拉迪 Charles Gherardi
       瑞奇·迪恩·洛根 Ricky Dean Logan
       达琳·沃格尔 Darlene Vogel
       李截 Jason Scott Lee
       弗利 Flea
       玛丽·艾伦·特雷纳 Mary Ellen Trainor
       Freddie  Freddie
       吉安·马里亚·沃隆特 Gian Maria Volonté
       克林特·伊斯特伍德 Clint Eastwood
       克里斯平·格洛弗 Crispin Glover
       丽萨·弗里曼 Lisa Freeman
       唐纳德·富利洛夫 Donald Fullilove
       小哈利·沃特斯 Harry Waters Jr.
       斯蒂芬妮·威廉姆斯 Stephanie Williams
       内尔·洛斯 Neil Ross
       伊琳娜·卡什 Irina Cashen
       乔·弗莱厄蒂 Joe Flaherty
       Sean Michael Fish Sean Michael Fish
       Justin Mosley Spink Justin Mosley Spink
       伊利亚·伍德 Elijah Wood
       乔治·“巴克”·弗劳尔 George 'Buck' Flower
       翠西·达利 Tracy Dali
       Tommy Thomas Tommy Thomas
       安吉拉·格林布拉特 Angela Greenblatt
       鲍勃·盖尔 Bob Gale
       凯瑟琳·肯尼迪 Kathleen Kennedy
       史蒂夫·斯达克 Steve Starkey
       尼尔. 卡顿 Neil Canton
       弗兰克·马歇尔 Frank Marshall
       亚伦·史维斯查 Alan Silvestri
       迪恩·康迪 Dean Cundey
       Harry Keramidas Harry Keramidas
       阿瑟·施密特 Arthur Schmidt
       Valorie Massalas Valorie Massalas
       迈克·芬顿 Mike Fenton
       朱迪·泰勒 Judy Taylor
       琳达·德森纳 Linda DeScenna
       瑞克·卡特 Rick Carter
       乔安娜·约翰斯顿 Joanna Johnston
       肯·切斯 Ken Chase
       迈克尔·米尔斯 Michael Mills
       Kenny Myers Kenny Myers
       Roland Blancaflor Roland Blancaflor
       Ellis Burman Jr. Ellis Burman Jr.
       Allen Payne Allen Payne
       Bron Roylance Bron Roylance
       哈泽尔·凯特穆尔 Hazel Catmull
       Cara Giallanza Cara Giallanza
       布鲁斯·莫里亚蒂 Bruce Moriarty
       David McGiffert David McGiffert
       托马斯·J·史姑娘 Thomas J. Smith
       Elizabeth Ann Bundschu Elizabeth Ann Bundschu
       埃德·琼斯 Ed Jones
       Susan Adele Colletta Susan Adele Colletta
       帕特里克·克兰斯 Patrick Clancey
       布拉德·库恩 Brad Kuehn
       Carl Miller Carl Miller
       杰克·莫多万 Jack Mongovan
       史蒂夫·高利 Steve Gawley
       斯科特·法勒   Scott Farrar
       Christofer Dierdorff Christofer Dierdorff
       乔恩·亚历山大 Jon Alexander
       Charles Bailey Charles Bailey
       戈登·贝克尔 Gordon Baker
       约翰·贝尔 John Bell
       汤姆·柏提诺 Tom Bertino
       芭芭拉·布伦南 Barbara Brennan
       Steven Kosakura Steven Kosakura
       Kim Bromley Kim Bromley
       Vance Piper Vance Piper
       Patrick T. Myers Patrick T. Myers
       洛尔恩·彼得森 Lorne Peterson
       Pat Sweeney Pat Sweeney
       Wes Takahashi Wes Takahashi
       梅利莎·泰勒 Melissa Taylor
       上杉佑子 Yusei Uesugi
       Isa Alsup Isa Alsup
       Timothy Taylor Timothy Taylor
       布鲁斯·沃尔特斯 Bruce Walters
       约翰·埃利斯 John Ellis
       马可·A·Z·迪普 Mark A.Z. Dippé
       马克·西格尔 Mark Siegel
       道格拉斯·斯迈斯 Douglas Smythe
       斯科特·罗斯 Scott Ross
       斯蒂芬·罗森包姆 Stephen Rosenbaum
       肯·拉斯顿 Ken Ralston
       斯图尔特·罗伯特森 Stuart Robertson
       Martin Rosenberg Martin Rosenberg
       托马斯·罗塞特 Thomas Rosseter
       Judith Weaver Judith Weaver
       肯尼斯·史姑娘 Kenneth Smith
◎简  介
  马丁(Michael J. Fox 饰)才回到现实天下与女友团圆,布朗博士(Christopher Lloyd 饰)就心急火燎地把他们带到了30年后的未来天下,本来这一次是马丁未来的两个孩子因介入抢劫锒铛入狱,博士要携马丁一路阻止悲剧发生。                                    
                                周旋一番后,两个孩子被成功拯救,但三人回到现实天下后,却发现方圆发生了天翻地覆的变化,天下被贝夫(Thomas F. Wilson饰)所控制,马丁的父亲乔治惨死,母亲洛莲(Lea Thompson 饰)居然成了贝夫的妻子!                                    
                                这一切都是由于时光机械的奥秘失慎被未来的老贝夫看破,他偷偷回去捣鬼,竟是以使得全部天下都在他的把握下!马丁与博士再次踏上时光穿越的征途,希望将天下扳回正轨。
◎获奖情况 (共1项)
  第62届奥斯卡金像奖 (1990)
  最好视觉结果(提名)
  1. ##### MediaInfo ######
  2. General
  3. Unique ID                                : 199771994879815026939551810892639154645 (0x964AAFCB7FC9B3C789CA8DE38DFEB1D5)
  4. Complete name                            : Back.to.the.Future.Part.II.1989.BluRay.1080p.x265.10bit.2Audio-MiniHD.mkv
  5. Format                                   : Matroska
  6. Format version                           : Version 4
  7. File size                                : 5.11 GiB
  8. Duration                                 : 1 h 48 min
  9. Overall bit rate                         : 6 770 kb/s
  10. Encoded date                             : UTC 2017-07-19 07:39:54
  11. Writing application                      : mkvmerge v11.0.0 ('Alive') 64bit
  12. Writing library                          : libebml v1.3.4 + libmatroska v1.4.5
  13. Video
  14. ID                                       : 1
  15. Format                                   : HEVC
  16. Format/Info                              : High Efficiency Video Coding
  17. Codec ID                                 : V_MPEGH/ISO/HEVC
  18. Duration                                 : 1 h 48 min
  19. Bit rate                                 : 5 531 kb/s
  20. Width                                    : 1 920 pixels
  21. Height                                   : 1 040 pixels
  22. Display aspect ratio                     : 1.85:1
  23. Frame rate mode                          : Constant
  24. Frame rate                               : 23.976 (24000/1001/53875) FPS
  25. Bits/(Pixel*Frame)                       : 0.116
  26. Stream size                              : 4.18 GiB (82%)
  27. Default                                  : Yes
  28. Forced                                   : No
  29. Audio #1
  30. ID                                       : 2
  31. Format                                   : AC-3
  32. Format/Info                              : Audio Coding 3
  33. Commercial name                          : Dolby Digital
  34. Codec ID                                 : A_AC3
  35. Duration                                 : 1 h 48 min
  36. Bit rate mode                            : Constant
  37. Bit rate                                 : 640 kb/s
  38. Channel(s)                               : 6 channels
  39. Channel layout                           : L R C LFE Ls Rs
  40. Sampling rate                            : 48.0 kHz
  41. Frame rate                               : 31.250 FPS (1536 SPF)
  42. Compression mode                         : Lossy
  43. Stream size                              : 495 MiB (9%)
  44. Language                                 : English
  45. Service kind                             : Complete Main
  46. Default                                  : Yes
  47. Forced                                   : No
  48. Audio #2
  49. ID                                       : 3
  50. Format                                   : AC-3
  51. Format/Info                              : Audio Coding 3
  52. Commercial name                          : Dolby Digital
  53. Codec ID                                 : A_AC3
  54. Duration                                 : 1 h 48 min
  55. Bit rate mode                            : Constant
  56. Bit rate                                 : 448 kb/s
  57. Channel(s)                               : 6 channels
  58. Channel layout                           : L R C LFE Ls Rs
  59. Sampling rate                            : 48.0 kHz
  60. Frame rate                               : 31.250 FPS (1536 SPF)
  61. Compression mode                         : Lossy
  62. Stream size                              : 346 MiB (7%)
  63. Language                                 : Chinese
  64. Service kind                             : Complete Main
  65. Default                                  : No
  66. Forced                                   : No
  67. Text #1
  68. ID                                       : 4
  69. Format                                   : PGS
  70. Muxing mode                              : zlib
  71. Codec ID                                 : S_HDMV/PGS
  72. Codec ID/Info                            : Picture based subtitle format used on BDs/HD-DVDs
  73. Duration                                 : 1 h 42 min
  74. Bit rate                                 : 33.8 kb/s
  75. Count of elements                        : 5246
  76. Stream size                              : 24.7 MiB (0%)
  77. Language                                 : English
  78. Default                                  : Yes
  79. Forced                                   : No
  80. Text #2
  81. ID                                       : 5
  82. Format                                   : PGS
  83. Muxing mode                              : zlib
  84. Codec ID                                 : S_HDMV/PGS
  85. Codec ID/Info                            : Picture based subtitle format used on BDs/HD-DVDs
  86. Duration                                 : 1 h 42 min
  87. Bit rate                                 : 13.1 kb/s
  88. Count of elements                        : 2558
  89. Stream size                              : 9.65 MiB (0%)
  90. Language                                 : Chinese
  91. Default                                  : No
  92. Forced                                   : No
  93. Text #3
  94. ID                                       : 6
  95. Format                                   : PGS
  96. Muxing mode                              : zlib
  97. Codec ID                                 : S_HDMV/PGS
  98. Codec ID/Info                            : Picture based subtitle format used on BDs/HD-DVDs
  99. Duration                                 : 1 h 43 min
  100. Bit rate                                 : 22.3 kb/s
  101. Count of elements                        : 2418
  102. Stream size                              : 16.5 MiB (0%)
  103. Language                                 : Chinese
  104. Default                                  : No
  105. Forced                                   : No
  106. Text #4
  107. ID                                       : 7
  108. Format                                   : PGS
  109. Muxing mode                              : zlib
  110. Codec ID                                 : S_HDMV/PGS
  111. Codec ID/Info                            : Picture based subtitle format used on BDs/HD-DVDs
  112. Duration                                 : 1 h 43 min
  113. Bit rate                                 : 23.1 kb/s
  114. Count of elements                        : 2418
  115. Stream size                              : 17.0 MiB (0%)
  116. Language                                 : Chinese
  117. Default                                  : No
  118. Forced                                   : No
  119. Text #5
  120. ID                                       : 8
  121. Format                                   : PGS
  122. Muxing mode                              : zlib
  123. Codec ID                                 : S_HDMV/PGS
  124. Codec ID/Info                            : Picture based subtitle format used on BDs/HD-DVDs
  125. Duration                                 : 1 h 42 min
  126. Bit rate                                 : 31.2 kb/s
  127. Count of elements                        : 2346
  128. Stream size                              : 22.7 MiB (0%)
  129. Language                                 : Chinese
  130. Default                                  : No
  131. Forced                                   : No
  132. Text #6
  133. ID                                       : 9
  134. Format                                   : PGS
  135. Muxing mode                              : zlib
  136. Codec ID                                 : S_HDMV/PGS
  137. Codec ID/Info                            : Picture based subtitle format used on BDs/HD-DVDs
  138. Duration                                 : 1 h 42 min
  139. Bit rate                                 : 32.3 kb/s
  140. Count of elements                        : 2346
  141. Stream size                              : 23.6 MiB (0%)
  142. Language                                 : Chinese
  143. Default                                  : No
  144. Forced                                   : No
  145. Menu
  146. 00:00:00.000                             : en:Chapter 01
  147. 00:02:57.510                             : en:Chapter 02
  148. 00:04:17.631                             : en:Chapter 03
  149. 00:12:44.387                             : en:Chapter 04
  150. 00:17:09.111                             : en:Chapter 05
  151. 00:21:16.525                             : en:Chapter 06
  152. 00:26:59.659                             : en:Chapter 07
  153. 00:34:15.428                             : en:Chapter 08
  154. 00:38:32.476                             : en:Chapter 09
  155. 00:46:13.061                             : en:Chapter 10
  156. 00:50:35.449                             : en:Chapter 11
  157. 00:55:32.620                             : en:Chapter 12
  158. 01:01:30.144                             : en:Chapter 13
  159. 01:07:14.196                             : en:Chapter 14
  160. 01:14:45.939                             : en:Chapter 15
  161. 01:28:00.608                             : en:Chapter 16
  162. 01:34:43.302                             : en:Chapter 17
  163. 01:37:46.026                             : en:Chapter 18
  164. 01:40:37.238                             : en:Chapter 19
  165. 01:43:25.490                             : en:Chapter 20
复制代码


回到未来2[国英多音轨/中英字幕].Back.to.the.Future.Part.II.1989.BluRay.1080p.x265.10bit.2Audio-MiniHD 5.11GB-2.jpeg
回到未来2[国英多音轨/中英字幕].Back.to.the.Future.Part.II.1989.BluRay.1080p.x265.10bit.2Audio-MiniHD 5.11GB-3.jpeg
回到未来2[国英多音轨/中英字幕].Back.to.the.Future.Part.II.1989.BluRay.1080p.x265.10bit.2Audio-MiniHD 5.11GB-4.jpeg
回到未来2[国英多音轨/中英字幕].Back.to.the.Future.Part.II.1989.BluRay.1080p.x265.10bit.2Audio-MiniHD 5.11GB-5.jpeg
回到未来2[国英多音轨/中英字幕].Back.to.the.Future.Part.II.1989.BluRay.1080p.x265.10bit.2Audio-MiniHD 5.11GB-6.jpeg
回到未来2[国英多音轨/中英字幕].Back.to.the.Future.Part.II.1989.BluRay.1080p.x265.10bit.2Audio-MiniHD 5.11GB-7.jpeg









回复

使用道具 举报

懒得打字嘛,点击右侧快捷回复 【右侧内容,后台自定义】
您需要登录后才可以回帖 登录 | 立即加入

本版积分规则

Archiver|小黑屋| 蓝光电影网 |网站地图

Copyright © 2021 Comsenz Inc. Powered by 蓝光电影网

蓝光电影网

本站内容由用户自主分享和转载自互联网,转载目的在于传递更多信息,并不代表本网赞同其观点和对其真实性负责。

如有侵权、违反国家法律政策行为,请联系我们,我们会第一时间及时清除和处理!

举报反馈邮箱:[email protected]

快速回复 返回顶部 返回列表