找回密码

蓝光电影网

查看: 55|回复: 0

[剧情] 回到未来[国英多音轨/中英字幕].Back.to.the.Future.1985.BluRay.1080p.x265.10bit.3Audio-MiniHD 7.84GB

[复制链接]
蓝光币
7
发表于 2022-6-3 23:45:17 | 显示全部楼层 |阅读模式
回到未来[国英多音轨/中英字幕].Back.to.the.Future.1985.BluRay.1080p.x265.10bit.3Audio-MiniHD 7.84GB-1.jpeg

◎译  名 回到未来 / 回到未来第一集
◎片  名 Back to the Future
◎年  代 1985
◎产  地 美国
◎类  别 笑剧 / 科幻 / 冒险
◎语  言 英语
◎上映日期 1985-07-03(美国)
◎IMDb链接 https://www.imdb.com/title/tt0088763/
◎豆瓣评分 8.7/10 (187683人评价)
◎豆瓣链接 https://movie.douban.com/subject/1300555/
◎片  长 116分钟
◎导  演 罗伯特·泽米吉斯 Robert Zemeckis
◎编  剧 罗伯特·泽米吉斯 Robert Zemeckis
       鲍勃·盖尔 Bob Gale
◎演  员 迈克尔·J·福克斯 Michael J. Fox
       克里斯托弗·洛伊德 Christopher Lloyd
       莉·汤普森 Lea Thompson
       克里斯平·格洛弗 Crispin Glover
       托马斯·F·威尔森 Thomas F. Wilson
       克劳迪娅·韦尔斯 Claudia Wells
       马克·麦克卢尔 Marc McClure
       温迪·乔·斯佩博 Wendie Jo Sperber
       乔治·第桑佐 George DiCenzo
       弗兰西斯·李·麦克凯恩 Frances Lee McCain
       詹姆斯·托根 James Tolkan
       J·J·科恩 J.J. Cohen
       凯西·希玛兹科 Casey Siemaszko
       比利·赞恩 Billy Zane
       小哈利·沃特斯 Harry Waters Jr.
       唐纳德·富利洛夫 Donald Fullilove
       丽萨·弗里曼 Lisa Freeman
       克里斯滕·考夫曼 Cristen Kauffman
       萨奇·帕克 Sachi Parker
       玛丽·艾伦·特雷纳 Mary Ellen Trainor
       麦娅·布鲁顿 Maia Brewton
       加里·莱利 Gary Riley
       艾尔莎·瑞雯 Elsa Raven
       休易·路易斯 Huey Lewis
       Tiger Tiger
       德博拉·哈蒙 Deborah Harmon
       诺曼·阿尔登 Norman Alden
       考特尼·盖恩斯 Courtney Gains
       乔治·“巴克”·弗劳尔 George 'Buck' Flower
       艾薇·贝瑟恩 Ivy Bethune
       罗伯特·克兰茨 Robert Krantz
       Tom Willett Tom Willett
       查尔斯·L·坎贝尔 Charles L. Campbell
       贾森·赫维 Jason Hervey
       Jeff O'Haco Jeff O'Haco
       Will Hare Will Hare
       Tom Tangen Tom Tangen
       Jason Marin Jason Marin
       Tommy Thomas Tommy Thomas
       Read Morgan Read Morgan
       Karen Petrasek Karen Petrasek
       计泓  (id:1472474)
       凯瑟琳·肯尼迪 Kathleen Kennedy
       弗兰克·马歇尔 Frank Marshall
       鲍勃·盖尔 Bob Gale
       尼尔. 卡顿 Neil Canton
       亚伦·史维斯查 Alan Silvestri
       迪恩·康迪 Dean Cundey
       阿瑟·施密特 Arthur Schmidt
       Harry Keramidas Harry Keramidas
       迈克·芬顿 Mike Fenton
       朱迪·泰勒 Judy Taylor
       劳伦斯·G·波尔 Lawrence G. Paull
       Todd Hallowell Todd Hallowell
       哈尔·高斯曼 Hal Gausman
       德博拉·林恩·斯科特 Deborah Lynn Scott
       肯·切斯 Ken Chase
       弗兰克·马歇尔 Frank Marshall
       David McGiffert David McGiffert
       Pamela M. Eilerson Pamela M. Eilerson
       比尔·瓦尼 Bill Varney
       肯·拉斯顿 Ken Ralston
       史蒂夫·高利 Steve Gawley
       托马斯·罗塞特 Thomas Rosseter
       Ned Gorman Ned Gorman
◎简  介
  布朗博士(克里斯托弗?洛伊德 Christopher Lloyd 饰)总是有些希奇怪僻的发现。在一次实验他发现的时光机械时,他找来了忘年交高中生马丁(迈克尔?J?福克斯 Michael J. Fox 饰)。岂料尝试进程中博士被暴徒杀戮了,马丁忙乱中架着时光机逃窜,回到了30年前。                                    
                                马丁碰到了30年前的父亲乔治(克利斯丁?格拉夫 Crispin Glover 饰)和母亲洛莲(莉?汤普森 Lea Thompson 饰)。马丁一边找寻30年前的布朗博士,好让自己回到未来;一边极力撮合乔治和洛莲,免得自己在今后消失了。但乔治为人懦弱,马丁在撮合进程中画蛇添足让洛莲爱上了自己。还有使人厌恶的贝夫从中作梗,令马丁愤怒不已。                                    
                                马丁周旋在他的双亲之间,还要尽快找到博士,想法子回到未来……
◎获奖情况 (共4项)
  第58届奥斯卡金像奖 (1986)
  最好原创剧本(提名)
  最好音效剪辑
  最好声响(提名)
  最好原创歌曲(提名)
  1. ##### MediaInfo ######
  2. General
  3. Unique ID                                : 190396155442824141057874886690405673803 (0x8F3CF7388818BF45B8E790FEABBCEB4B)
  4. Complete name                            : Back.to.the.Future.1985.BluRay.1080p.x265.10bit.3Audio-MiniHD.mkv
  5. Format                                   : Matroska
  6. Format version                           : Version 4
  7. File size                                : 7.83 GiB
  8. Duration                                 : 1 h 56 min
  9. Overall bit rate                         : 9 663 kb/s
  10. Encoded date                             : UTC 2017-07-12 18:53:52
  11. Writing application                      : mkvmerge v11.0.0 ('Alive') 64bit
  12. Writing library                          : libebml v1.3.4 + libmatroska v1.4.5
  13. Video
  14. ID                                       : 1
  15. Format                                   : HEVC
  16. Format/Info                              : High Efficiency Video Coding
  17. Codec ID                                 : V_MPEGH/ISO/HEVC
  18. Duration                                 : 1 h 56 min
  19. Bit rate                                 : 8 191 kb/s
  20. Width                                    : 1 920 pixels
  21. Height                                   : 1 038 pixels
  22. Display aspect ratio                     : 1.85:1
  23. Frame rate mode                          : Constant
  24. Frame rate                               : 23.976 (24000/1001/53875) FPS
  25. Bits/(Pixel*Frame)                       : 0.171
  26. Stream size                              : 6.64 GiB (85%)
  27. Default                                  : Yes
  28. Forced                                   : No
  29. Audio #1
  30. ID                                       : 2
  31. Format                                   : AC-3
  32. Format/Info                              : Audio Coding 3
  33. Commercial name                          : Dolby Digital
  34. Codec ID                                 : A_AC3
  35. Duration                                 : 1 h 56 min
  36. Bit rate mode                            : Constant
  37. Bit rate                                 : 640 kb/s
  38. Channel(s)                               : 6 channels
  39. Channel layout                           : L R C LFE Ls Rs
  40. Sampling rate                            : 48.0 kHz
  41. Frame rate                               : 31.250 FPS (1536 SPF)
  42. Compression mode                         : Lossy
  43. Stream size                              : 531 MiB (7%)
  44. Language                                 : English
  45. Service kind                             : Complete Main
  46. Default                                  : Yes
  47. Forced                                   : No
  48. Audio #2
  49. ID                                       : 3
  50. Format                                   : AC-3
  51. Format/Info                              : Audio Coding 3
  52. Commercial name                          : Dolby Digital
  53. Codec ID                                 : A_AC3
  54. Duration                                 : 1 h 56 min
  55. Bit rate mode                            : Constant
  56. Bit rate                                 : 448 kb/s
  57. Channel(s)                               : 6 channels
  58. Channel layout                           : L R C LFE Ls Rs
  59. Sampling rate                            : 48.0 kHz
  60. Frame rate                               : 31.250 FPS (1536 SPF)
  61. Compression mode                         : Lossy
  62. Stream size                              : 372 MiB (5%)
  63. Language                                 : Chinese
  64. Service kind                             : Complete Main
  65. Default                                  : No
  66. Forced                                   : No
  67. Audio #3
  68. ID                                       : 4
  69. Format                                   : AC-3
  70. Format/Info                              : Audio Coding 3
  71. Commercial name                          : Dolby Digital
  72. Codec ID                                 : A_AC3
  73. Duration                                 : 1 h 56 min
  74. Bit rate mode                            : Constant
  75. Bit rate                                 : 192 kb/s
  76. Channel(s)                               : 2 channels
  77. Channel layout                           : L R
  78. Sampling rate                            : 48.0 kHz
  79. Frame rate                               : 31.250 FPS (1536 SPF)
  80. Compression mode                         : Lossy
  81. Stream size                              : 159 MiB (2%)
  82. Language                                 : Chinese
  83. Service kind                             : Complete Main
  84. Default                                  : No
  85. Forced                                   : No
  86. Text #1
  87. ID                                       : 5
  88. Format                                   : PGS
  89. Muxing mode                              : zlib
  90. Codec ID                                 : S_HDMV/PGS
  91. Codec ID/Info                            : Picture based subtitle format used on BDs/HD-DVDs
  92. Language                                 : English
  93. Default                                  : Yes
  94. Forced                                   : No
  95. Text #2
  96. ID                                       : 6
  97. Format                                   : PGS
  98. Muxing mode                              : zlib
  99. Codec ID                                 : S_HDMV/PGS
  100. Codec ID/Info                            : Picture based subtitle format used on BDs/HD-DVDs
  101. Language                                 : Chinese
  102. Default                                  : No
  103. Forced                                   : No
  104. Text #3
  105. ID                                       : 7
  106. Format                                   : PGS
  107. Muxing mode                              : zlib
  108. Codec ID                                 : S_HDMV/PGS
  109. Codec ID/Info                            : Picture based subtitle format used on BDs/HD-DVDs
  110. Language                                 : Chinese
  111. Default                                  : No
  112. Forced                                   : No
  113. Text #4
  114. ID                                       : 8
  115. Format                                   : PGS
  116. Muxing mode                              : zlib
  117. Codec ID                                 : S_HDMV/PGS
  118. Codec ID/Info                            : Picture based subtitle format used on BDs/HD-DVDs
  119. Language                                 : Chinese
  120. Default                                  : No
  121. Forced                                   : No
  122. Menu
  123. 00:00:00.000                             : en:Chapter 01
  124. 00:04:11.209                             : en:Chapter 02
  125. 00:06:44.737                             : en:Chapter 03
  126. 00:11:43.869                             : en:Chapter 04
  127. 00:18:01.038                             : en:Chapter 05
  128. 00:28:09.604                             : en:Chapter 06
  129. 00:31:27.552                             : en:Chapter 07
  130. 00:38:37.857                             : en:Chapter 08
  131. 00:41:18.934                             : en:Chapter 09
  132. 00:47:50.826                             : en:Chapter 10
  133. 00:55:49.429                             : en:Chapter 11
  134. 00:58:46.439                             : en:Chapter 12
  135. 01:05:12.742                             : en:Chapter 13
  136. 01:16:36.508                             : en:Chapter 14
  137. 01:20:10.430                             : en:Chapter 15
  138. 01:27:19.609                             : en:Chapter 16
  139. 01:31:08.129                             : en:Chapter 17
  140. 01:41:37.216                             : en:Chapter 18
  141. 01:46:37.099                             : en:Chapter 19
  142. 01:51:20.799                             : en:Chapter 20
复制代码


回到未来[国英多音轨/中英字幕].Back.to.the.Future.1985.BluRay.1080p.x265.10bit.3Audio-MiniHD 7.84GB-2.jpeg
回到未来[国英多音轨/中英字幕].Back.to.the.Future.1985.BluRay.1080p.x265.10bit.3Audio-MiniHD 7.84GB-3.jpeg
回到未来[国英多音轨/中英字幕].Back.to.the.Future.1985.BluRay.1080p.x265.10bit.3Audio-MiniHD 7.84GB-4.jpeg
回到未来[国英多音轨/中英字幕].Back.to.the.Future.1985.BluRay.1080p.x265.10bit.3Audio-MiniHD 7.84GB-5.jpeg
回到未来[国英多音轨/中英字幕].Back.to.the.Future.1985.BluRay.1080p.x265.10bit.3Audio-MiniHD 7.84GB-6.jpeg
回到未来[国英多音轨/中英字幕].Back.to.the.Future.1985.BluRay.1080p.x265.10bit.3Audio-MiniHD 7.84GB-7.jpeg









回复

使用道具 举报

懒得打字嘛,点击右侧快捷回复 【右侧内容,后台自定义】
您需要登录后才可以回帖 登录 | 立即加入

本版积分规则

Archiver|小黑屋| 蓝光电影网 |网站地图

Copyright © 2021 Comsenz Inc. Powered by 蓝光电影网

蓝光电影网

本站内容由用户自主分享和转载自互联网,转载目的在于传递更多信息,并不代表本网赞同其观点和对其真实性负责。

如有侵权、违反国家法律政策行为,请联系我们,我们会第一时间及时清除和处理!

举报反馈邮箱:[email protected]

快速回复 返回顶部 返回列表