找回密码

查看: 1222|回复: 0

[喜剧] 猫和老鼠:魔法戒指 Tom.And.Jerry.The.Magic.Ring.2001.1080p.HMAX.WEBRip.DD2.0.x264-SiGLA 3.76GB

[复制链接]
蓝光币
1840
发表于 2022-6-13 10:14:39 | 显示全部楼层 |阅读模式


◎译  名 猫和老鼠:魔法戒指 / 猫和老鼠:把戏戒指
◎片  名 Tom and Jerry: The Magic Ring
◎年  代 2002
◎产  地 美国
◎类  别 笑剧 / 动画
◎语  言 英语
◎上映日期 2002-03-12
◎IMDb链接 https://www.imdb.com/title/tt0303151/
◎豆瓣评分 8.7/10 (4896人评价)
◎豆瓣链接 https://movie.douban.com/subject/1864784/
◎片  长 62分钟
◎导  演 James T. Walker James T. Walker (id:1300295)
◎编  剧 约瑟夫·巴伯拉 Joseph Barbera (id:1002858)
       威廉·汉纳 William Hanna (id:1009244)
◎演  员 杰夫·贝内特 Jeff Bennett (id:1064239)
       弗兰克·维尔克 Frank Welker (id:1031825)
       查理·斯克莱特 Charlie Schlatter (id:1137943)
       吉姆·卡明斯 Jim Cummings (id:1040525)
       麦丽·弗拉纳甘 Maile Flanagan (id:1090433)
       杰斯·哈梅尔 Jess Harnell (id:1016698)
       莫里斯·拉马奇 Maurice LaMarche (id:1055202)
       特蕾丝·麦克尼尔 Tress MacNeille (id:1120584)
       塔拉·斯特朗 Tara Strong (id:1078960)
       比利·维斯特 Billy West (id:1165301)
       约瑟夫·巴伯拉 Joseph Barbera (id:1002858)
       威廉·汉纳 William Hanna (id:1009244)
       Tom Minton Tom Minton (id:1292179)
       J. Eric Schmidt J. Eric Schmidt (id:1296902)
◎简  介

  魔法师让汤姆看管的戒指,被杰瑞当王冠戴在头上,拿不下来了……
  1. Video
  2. ID                                       : 1
  3. Format                                   : AVC
  4. Format/Info                              : Advanced Video Codec
  5. Format profile                           : [email protected]
  6. Format settings                          : CABAC / 4 Ref Frames
  7. Format settings, CABAC                   : Yes
  8. Format settings, Reference frames        : 4 frames
  9. Codec ID                                 : V_MPEG4/ISO/AVC
  10. Duration                                 : 1 h 2 min
  11. Bit rate mode                            : Variable
  12. Bit rate                                 : 8 250 kb/s
  13. Maximum bit rate                         : 12.4 Mb/s
  14. Width                                    : 1 440 pixels
  15. Height                                   : 1 080 pixels
  16. Display aspect ratio                     : 4:3
  17. Frame rate mode                          : Constant
  18. Frame rate                               : 23.976 (24000/1001/189150) FPS
  19. Color space                              : YUV
  20. Chroma subsampling                       : 4:2:0
  21. Bit depth                                : 8 bits
  22. Scan type                                : Progressive
  23. Bits/(Pixel*Frame)                       : 0.221
  24. Stream size                              : 3.59 GiB (96%)
  25. Writing library                          : x264 core 157 r2965 861cec4
  26. Encoding settings                        : cabac=1 / ref=4 / deblock=1:0:0 / analyse=0x3:0x113 / me=hex / subme=7 / psy=1 / psy_rd=1.00:0.00 / mixed_ref=1 / me_range=16 / chroma_me=1 / trellis=1 / 8x8dct=1 / cqm=0 / deadzone=21,11 / fast_pskip=1 / chroma_qp_offset=-2 / threads=34 / lookahead_threads=5 / sliced_threads=0 / nr=0 / decimate=1 / interlaced=0 / bluray_compat=0 / constrained_intra=0 / bframes=3 / b_pyramid=2 / b_adapt=1 / b_bias=0 / direct=1 / weightb=1 / open_gop=0 / weightp=2 / keyint=96 / keyint_min=96 / scenecut=40 / intra_refresh=0 / rc_lookahead=40 / rc=2pass / mbtree=1 / bitrate=8250 / ratetol=1.0 / qcomp=0.60 / qpmin=0 / qpmax=69 / qpstep=4 / cplxblur=20.0 / qblur=0.5 / vbv_maxrate=12375 / vbv_bufsize=6187 / nal_hrd=vbr / filler=0 / ip_ratio=1.40 / aq=1:1.00
  27. Default                                  : Yes
  28. Forced                                   : No
  29. Color range                              : Limited
  30. Color primaries                          : BT.709
  31. Transfer characteristics                 : BT.709
  32. Matrix coefficients                      : BT.709
  33. Audio
  34. ID                                       : 2
  35. Format                                   : AC-3
  36. Format/Info                              : Audio Coding 3
  37. Commercial name                          : Dolby Digital
  38. Codec ID                                 : A_AC3
  39. Duration                                 : 1 h 2 min
  40. Bit rate mode                            : Constant
  41. Bit rate                                 : 384 kb/s
  42. Channel(s)                               : 2 channels
  43. Channel layout                           : L R
  44. Sampling rate                            : 48.0 kHz
  45. Frame rate                               : 31.250 FPS (1536 SPF)
  46. Compression mode                         : Lossy
  47. Stream size                              : 171 MiB (4%)
  48. Language                                 : English
  49. Service kind                             : Complete Main
  50. Default                                  : Yes
  51. Forced                                   : No
  52. Text #1
  53. ID                                       : 3
  54. Format                                   : UTF-8
  55. Codec ID                                 : S_TEXT/UTF8
  56. Codec ID/Info                            : UTF-8 Plain Text
  57. Duration                                 : 1 h 1 min
  58. Bit rate                                 : 23 b/s
  59. Count of elements                        : 689
  60. Stream size                              : 10.3 KiB (0%)
  61. Title                                    : English CC (SDH)
  62. Language                                 : English
  63. Default                                  : No
  64. Forced                                   : No
  65. Text #2
  66. ID                                       : 4
  67. Format                                   : UTF-8
  68. Codec ID                                 : S_TEXT/UTF8
  69. Codec ID/Info                            : UTF-8 Plain Text
  70. Duration                                 : 55 min 10 s
  71. Bit rate                                 : 14 b/s
  72. Count of elements                        : 193
  73. Stream size                              : 6.04 KiB (0%)
  74. Title                                    : Latin American
  75. Language                                 : Spanish
  76. Default                                  : No
  77. Forced                                   : No
  78. Text #3
  79. ID                                       : 5
  80. Format                                   : UTF-8
  81. Codec ID                                 : S_TEXT/UTF8
  82. Codec ID/Info                            : UTF-8 Plain Text
  83. Duration                                 : 55 min 10 s
  84. Bit rate                                 : 15 b/s
  85. Count of elements                        : 255
  86. Stream size                              : 6.16 KiB (0%)
  87. Title                                    : Brazilian
  88. Language                                 : Portuguese
  89. Default                                  : No
  90. Forced                                   : No
复制代码







                                       
                                       

                                       
                                       
                                       




回复

使用道具 举报

懒得打字嘛,点击右侧快捷回复 【右侧内容,后台自定义】
您需要登录后才可以回帖 登录 | 立即加入

本版积分规则

Copyright © 2024 Comsenz Inc. Powered by 蓝光电影网

本站内容由用户自主分享和转载自互联网,转载目的在于传递更多信息,并不代表本网赞同其观点和对其真实性负责。

如有侵权、违反国家法律政策行为,请联系我们,我们会第一时间及时清除和处理!

举报反馈邮箱:4k1080.com@gmail.com

快速回复 返回顶部 返回列表